<?xml version="1.0" standalone="no"?>
<!DOCTYPE svg PUBLIC "-//W3C//DTD SVG 1.1//EN" "http://www.w3.org/Graphics/SVG/1.1/DTD/svg11.dtd" >
<svg xmlns="http://www.w3.org/2000/svg" xmlns:xlink="http://www.w3.org/1999/xlink" version="1.1">
<metadata>
Created by FontForge 20170731 at Thu Jan  6 10:25:19 2022
 By Aleksey,,,
Copyright (c) 2018 by Eduardo Manso. All rights reserved.
</metadata>
<defs>
<font id="SteradianRegular" horiz-adv-x="1355" >
  <font-face 
    font-family="Steradian Regular"
    font-weight="400"
    font-stretch="normal"
    units-per-em="2048"
    panose-1="0 0 0 0 0 0 0 0 0 0"
    ascent="1638"
    descent="-410"
    x-height="1034"
    cap-height="1440"
    bbox="-479 -530 2824 1952"
    underline-thickness="73"
    underline-position="-400"
    unicode-range="U+000D-FF19"
  />
<missing-glyph horiz-adv-x="1779" 
d="M1591 721l-2 -2q0 -299 -211 -510t-506 -211q-297 0 -510 213q-210 210 -210 510q0 297 213 510q211 211 509 211q295 0 506 -211t211 -510zM193 719l-3 -4q0 -278 201 -479q199 -199 479 -199q279 0 480 201q198 198 198 479t-198 479q-201 201 -480 201
q-280 0 -479 -199q-198 -198 -198 -479zM1206 430h-112l-230 227l-227 -225h-113l283 283l-277 276h113l221 -219l223 223h115l-280 -280z" />
    <glyph glyph-name=".notdef" horiz-adv-x="1779" 
d="M1591 721l-2 -2q0 -299 -211 -510t-506 -211q-297 0 -510 213q-210 210 -210 510q0 297 213 510q211 211 509 211q295 0 506 -211t211 -510zM193 719l-3 -4q0 -278 201 -479q199 -199 479 -199q279 0 480 201q198 198 198 479t-198 479q-201 201 -480 201
q-280 0 -479 -199q-198 -198 -198 -479zM1206 430h-112l-230 227l-227 -225h-113l283 283l-277 276h113l221 -219l223 223h115l-280 -280z" />
    <glyph glyph-name=".null" horiz-adv-x="0" 
 />
    <glyph glyph-name="nonmarkingreturn" horiz-adv-x="682" 
 />
    <glyph glyph-name="NULL" horiz-adv-x="0" 
 />
    <glyph glyph-name="NULL" horiz-adv-x="0" 
 />
    <glyph glyph-name="CR" unicode="&#xd;" horiz-adv-x="514" 
 />
    <glyph glyph-name="space" unicode=" " horiz-adv-x="514" 
 />
    <glyph glyph-name="exclam" unicode="!" horiz-adv-x="563" 
d="M344 449h-125l-37 481v510h199v-510zM424 115l-4 -6q0 -58 -41 -99q-39 -39 -103 -39q-57 0 -98 41t-41 99q0 61 41 102t103 41q63 0 102 -39q41 -41 41 -100z" />
    <glyph glyph-name="quotedbl" unicode="&#x22;" horiz-adv-x="722" 
d="M274 940h-116l-39 449v51h192v-51zM565 940h-116l-39 449v51h192v-51z" />
    <glyph glyph-name="numbersign" unicode="#" horiz-adv-x="1333" 
d="M1155 584l-37 -162h-219l-84 -332h-166l84 332h-278l-84 -332h-166l84 332h-219l36 162h222l69 270h-219l39 160h219l84 334h166l-84 -334h279l84 334h165l-83 -334h219l-39 -160h-219l-70 -270h217zM563 854l-69 -270h278l70 270h-279z" />
    <glyph glyph-name="dollar" unicode="$" horiz-adv-x="1130" 
d="M655 -244l-192 -53v270q-185 34 -289 156q-102 126 -108 328h198q6 -156 86 -236t225 -80q125 0 203 66q74 65 74 184q0 76 -43 125q-44 50 -186 105l-164 59q-101 36 -160 68q-61 36 -92 63q-52 49 -76 113q-25 67 -25 147q0 151 99 256q98 104 260 131v217l188 43v-262
q166 -27 265 -141q98 -113 110 -301h-201q-12 139 -82 209q-71 71 -192 71q-115 0 -178 -57q-68 -59 -68 -154q0 -80 39 -125q40 -48 166 -92l201 -69q199 -67 270 -156q74 -89 74 -229q0 -188 -107 -301t-295 -131v-224z" />
    <glyph glyph-name="percent" unicode="%" horiz-adv-x="1560" 
d="M762 1116l2 4q0 -143 -98 -241q-99 -99 -248 -99q-143 0 -248 97q-98 94 -98 239q0 144 98 238q104 96 246 96q144 0 248 -96q98 -94 98 -238zM1239 1444h172l-1094 -1440h-172zM229 1118h2q0 -79 56 -135q55 -55 135 -55q83 0 135 55q53 59 53 135q0 80 -55 135
q-56 56 -135 56t-135 -56t-56 -135zM1493 330q0 -146 -98 -240q-104 -96 -246 -96q-144 0 -248 96q-98 94 -98 240q0 145 98 239q105 97 248 97q141 0 246 -97q98 -94 98 -239zM961 330q0 -82 53 -135q54 -54 135 -54t135 54q53 53 53 135q0 76 -53 135q-52 55 -133 55
q-80 0 -135 -55t-55 -135z" />
    <glyph glyph-name="ampersand" unicode="&#x26;" horiz-adv-x="1400" 
d="M1126 803l207 2l-266 -453l322 -350h-238l-180 197q-80 -111 -191 -168q-109 -56 -248 -56q-186 0 -315 111t-129 276q0 142 84 252q82 107 252 181q-82 91 -125 178q-37 78 -37 162q0 138 109 233q110 96 264 96q153 0 254 -88q100 -87 100 -221q0 -121 -80 -213
q-81 -93 -241 -164l276 -297zM637 1311h-2q-81 0 -137 -56t-56 -135q0 -48 25 -100q23 -48 108 -139q137 67 191 127q51 57 51 133q0 77 -49 123q-53 47 -131 47zM279 381l-3 -4q0 -100 78 -172q76 -70 195 -70q93 0 170 47q73 48 131 142l-336 364q-123 -59 -180 -133
q-55 -73 -55 -174z" />
    <glyph glyph-name="quotesingle" unicode="'" horiz-adv-x="432" 
d="M274 940h-116l-39 449v51h192v-51z" />
    <glyph glyph-name="parenleft" unicode="(" horiz-adv-x="612" 
d="M553 -287l-195 -2q-125 201 -190 451q-66 258 -66 524q0 252 66 510q65 251 190 461h195q-132 -228 -199 -475q-67 -244 -67 -496q0 -272 67 -516q68 -250 199 -457z" />
    <glyph glyph-name="parenright" unicode=")" horiz-adv-x="612" 
d="M254 -287h-195q127 206 199 459q68 248 68 516q0 248 -68 496q-67 247 -199 475h195q125 -210 190 -461q66 -258 66 -510q0 -266 -66 -524q-65 -250 -190 -451z" />
    <glyph glyph-name="asterisk" unicode="*" horiz-adv-x="946" 
d="M319 713l-145 98l184 223l-274 76l61 162l258 -109l-20 277h184l-20 -277l258 109l57 -164l-280 -74l186 -225l-139 -100l-156 256z" />
    <glyph glyph-name="plus" unicode="+" horiz-adv-x="1167" 
d="M659 256h-151v385h-385v152h385v385h151v-385h385v-152h-385v-385z" />
    <glyph glyph-name="comma" unicode="," horiz-adv-x="512" 
d="M221 -324l-145 -4l135 305q-47 12 -74 50q-26 33 -26 84q0 61 41 102t102 41q63 0 102 -39q41 -41 41 -98q0 -19 -6 -37q-3 -7 -7 -20.5t-7 -20.5z" />
    <glyph glyph-name="hyphen" unicode="-" horiz-adv-x="761" 
d="M135 637h492v-180h-492v180z" />
    <glyph glyph-name="period" unicode="." horiz-adv-x="497" 
d="M391 115l-4 -6q0 -58 -41 -99q-39 -39 -102 -39q-58 0 -99 41t-41 99q0 61 41 102t103 41q63 0 102 -39q41 -41 41 -100z" />
    <glyph glyph-name="slash" unicode="/" horiz-adv-x="813" 
d="M555 1659h188l-485 -1946h-188z" />
    <glyph glyph-name="zero" unicode="0" horiz-adv-x="1290" 
d="M1161 500v-6q0 -250 -141 -388q-137 -137 -375 -137q-229 0 -375 140q-141 138 -141 387v442q0 247 141 385q145 139 375 139q238 0 375 -137q141 -138 141 -383v-442zM643 1272v-8q-148 0 -233 -88q-86 -89 -86 -248v-441q0 -158 86 -247q85 -88 233 -88q149 0 236 90
q86 89 86 250v440q0 161 -86 250q-87 90 -236 90z" />
    <glyph glyph-name="one" unicode="1" horiz-adv-x="720" 
d="M530 0h-196v1260h-309l47 180h458v-1440z" />
    <glyph glyph-name="two" unicode="2" horiz-adv-x="1216" 
d="M1122 0l-1020 -6v151l590 564q102 99 142 172q40 76 40 151q0 109 -73 176q-74 68 -197 68q-135 0 -217 -82q-83 -83 -92 -217h-201q9 216 152 350q141 135 368 135q206 0 338 -114q129 -114 129 -299q0 -124 -55 -228q-54 -99 -213 -252l-412 -389h721v-180z" />
    <glyph glyph-name="three" unicode="3" horiz-adv-x="1196" 
d="M88 410h195q6 -108 92 -179q89 -71 215 -71q131 0 213 76q84 78 84 190q0 119 -80 190q-84 72 -215 72h-152v146h158q107 0 178 65q68 65 68 170q0 96 -74 158q-73 61 -186 61q-122 0 -191 -63q-75 -63 -78 -166h-196q6 175 137 291t338 116q206 0 324 -106
q122 -107 122 -264q0 -110 -53 -199q-55 -86 -153 -131q126 -44 190 -137q66 -97 66 -228q0 -180 -138 -303t-356 -123q-217 0 -358 123q-141 126 -150 312z" />
    <glyph glyph-name="four" unicode="4" horiz-adv-x="1196" 
d="M49 461l588 979h227l-579 -953h510v324l190 45v-369h154v-176h-154v-311h-190v311h-746v150z" />
    <glyph glyph-name="five" unicode="5" horiz-adv-x="1169" 
d="M238 1440h759v-180h-600l-39 -400q49 29 119 47q80 17 129 17q219 0 348 -129t129 -340q0 -206 -141 -344q-138 -138 -354 -138q-212 0 -359 129t-159 326h200q9 -116 97 -195q89 -77 211 -77q132 0 221 86q90 87 90 213q0 132 -86 215q-82 82 -223 82q-83 0 -150 -31
q-64 -30 -104 -88l-160 18z" />
    <glyph glyph-name="six" unicode="6" horiz-adv-x="1179" 
d="M604 -25v-4q-210 0 -362 146q-148 145 -148 354q0 101 37 211q37 109 105 209l378 549h230l-379 -527q47 17 86 25q36 8 98 8q193 0 332 -139q137 -137 137 -338q0 -207 -149 -350q-150 -144 -365 -144zM287 465q0 -133 92 -225q93 -93 227 -93q135 0 228 93
q92 92 92 225q0 128 -92 217q-88 88 -228 88q-139 0 -227 -88q-92 -89 -92 -217z" />
    <glyph glyph-name="seven" unicode="7" horiz-adv-x="1060" 
d="M786 1260h-737v180h963v-156l-611 -1284h-219z" />
    <glyph glyph-name="eight" unicode="8" horiz-adv-x="1206" 
d="M1104 408l4 -2q0 -184 -139 -308q-138 -123 -361 -123q-221 0 -362 123q-142 124 -142 308q0 115 62 215q60 97 172 153q-82 52 -129 135q-45 80 -45 178q0 163 123 271q126 108 317 108q192 0 318 -108q122 -107 122 -268q0 -99 -45 -179q-47 -83 -129 -135
q112 -56 172 -153q62 -100 62 -215zM348 1071v-2q0 -95 74 -160q77 -65 190 -65q118 0 189 65t71 160t-71 160t-189 65q-121 0 -190 -63q-74 -65 -74 -160zM301 412l4 -6q0 -114 86 -191q82 -76 221 -76q132 0 222 78q86 77 86 191q0 117 -86 194q-90 78 -224 78
q-141 0 -223 -76q-86 -77 -86 -192z" />
    <glyph glyph-name="nine" unicode="9" horiz-adv-x="1179" 
d="M575 1464v-2q220 0 363 -143q147 -144 147 -352q0 -104 -36 -211q-37 -109 -105 -209l-379 -549h-229l379 526q-42 -15 -86 -24q-36 -8 -99 -8q-192 0 -331 139q-138 138 -138 338q0 206 150 350q151 145 364 145zM893 969q0 133 -92 225t-228 92q-135 0 -227 -92
t-92 -225q0 -128 92 -217q88 -88 227 -88q140 0 228 88q92 89 92 217z" />
    <glyph glyph-name="colon" unicode=":" horiz-adv-x="555" 
d="M420 115l-4 -6q0 -58 -41 -99q-39 -39 -103 -39q-57 0 -98 41t-41 99q0 61 41 102t102 41q64 0 103 -39q41 -41 41 -100zM416 911l-4 -6q0 -57 -41 -98q-39 -39 -103 -39q-57 0 -98 41t-41 98q0 62 41 103t102 41q64 0 103 -39q41 -41 41 -101z" />
    <glyph glyph-name="semicolon" unicode=";" horiz-adv-x="581" 
d="M262 -324l-145 -4l135 305q-47 12 -74 50q-26 33 -26 84q0 61 41 102t102 41q63 0 102 -39q41 -41 41 -98q0 -19 -6 -37q-3 -7 -7 -20.5t-7 -20.5zM436 913l-4 -6q0 -57 -41 -98q-39 -39 -102 -39q-58 0 -99 41q-40 40 -40 98q0 63 40 103q41 41 103 41q63 0 102 -39
q41 -41 41 -101z" />
    <glyph glyph-name="less" unicode="&#x3c;" horiz-adv-x="1167" 
d="M154 637v154l817 407v-182l-613 -301l613 -303v-183z" />
    <glyph glyph-name="equal" unicode="=" horiz-adv-x="1167" 
d="M123 854v152h921v-152h-921zM123 428v152h921v-152h-921z" />
    <glyph glyph-name="greater" unicode="&#x3e;" horiz-adv-x="1167" 
d="M1014 793v-154l-817 -408v183l612 301l-612 303v182z" />
    <glyph glyph-name="question" unicode="?" horiz-adv-x="1103" 
d="M416 535l229 204q76 70 117 154q41 87 41 172q0 103 -70 164t-184 61q-127 0 -203 -73q-78 -75 -84 -201h-194q9 204 141 327t350 123q206 0 324 -106q123 -108 123 -283q0 -116 -54 -233q-52 -110 -164 -213l-196 -182h-176v86zM649 115l-4 -6q0 -58 -41 -99
q-39 -39 -102 -39q-58 0 -99 41t-41 99q0 61 41 102t103 41q63 0 102 -39q41 -41 41 -100z" />
    <glyph glyph-name="at" unicode="@" horiz-adv-x="1871" 
d="M819 166l-4 -12q-133 0 -223 90q-88 88 -88 237q0 177 114 303q114 123 277 123q90 0 154 -37q65 -38 102 -104l29 123h176l-103 -434q-24 -101 11 -154t120 -53q102 0 166 104q64 101 64 266q0 267 -193 439t-485 172q-295 0 -492 -191q-196 -190 -196 -495
q0 -302 198 -482t498 -180q76 0 152 13q59 11 123 34v-143q-51 -20 -132 -33q-73 -12 -147 -12q-177 0 -326 57q-157 59 -276 166t-184 258q-64 146 -64 328q0 181 62 332q61 149 182 264q115 109 274 172q155 61 330 61q353 0 594 -215q240 -215 240 -536q0 -235 -111 -373
q-112 -139 -305 -139q-96 0 -172 49t-94 135q-51 -65 -119 -100q-62 -33 -152 -33zM692 492l-4 -3q0 -95 43 -147q42 -51 123 -51q106 0 174 86t68 213q0 76 -49 125t-132 49q-92 0 -157 -80q-66 -84 -66 -192z" />
    <glyph glyph-name="A" unicode="A" horiz-adv-x="1384" 
d="M588 1440h209l549 -1440h-211l-129 352h-639l-129 -352h-201zM944 518l-258 699l-258 -699h516z" />
    <glyph glyph-name="B" unicode="B" horiz-adv-x="1368" 
d="M793 0l-600 4v1440h530q217 0 348 -98q133 -100 133 -265q0 -109 -59 -198q-59 -86 -172 -135q145 -38 225 -130t80 -223q0 -181 -135 -289q-130 -106 -350 -106zM1001 1055v-2q0 106 -81 166q-82 61 -218 61h-313v-469h322q127 0 211 66q79 64 79 178zM1075 416
q0 106 -84 172q-83 65 -221 65h-381v-489h381q139 0 221 67q84 69 84 185z" />
    <glyph glyph-name="C" unicode="C" horiz-adv-x="1642" 
d="M1362 565l203 6q-52 -259 -252 -426q-198 -165 -473 -165q-316 0 -531 215t-215 528t215 528t531 215q269 0 467 -155q199 -156 258 -412h-211q-55 171 -197 277q-140 104 -321 104q-229 0 -381 -162q-154 -165 -154 -395q0 -234 154 -399q152 -162 381 -162
q190 0 333 110q143 107 193 293z" />
    <glyph glyph-name="D" unicode="D" horiz-adv-x="1562" 
d="M692 0l-504 -2v1440h502q338 0 557 -195q215 -194 215 -520q0 -329 -215 -526t-555 -197zM385 1251v-1065h299q258 0 416 146q157 145 157 393q0 243 -157 385q-156 141 -416 141h-299z" />
    <glyph glyph-name="E" unicode="E" horiz-adv-x="1191" 
d="M1079 0h-889v1440h879v-180h-682v-441h633v-172h-633v-467h692v-180z" />
    <glyph glyph-name="F" unicode="F" horiz-adv-x="1140" 
d="M387 0h-197v1440h879v-180h-682v-463h633v-176h-633v-621z" />
    <glyph glyph-name="G" unicode="G" horiz-adv-x="1658" 
d="M1530 723l-6 -715h-164v256q-86 -135 -227 -209q-140 -73 -324 -73q-306 0 -512 215q-205 211 -205 530q0 307 213 526q212 215 526 215q244 0 439 -139q191 -141 260 -366h-215q-62 147 -191 233q-130 86 -290 86q-229 0 -381 -162q-154 -165 -154 -395q0 -241 154 -406
q151 -161 385 -161q210 0 344 104q135 105 170 299h-527v162h705z" />
    <glyph glyph-name="H" unicode="H" horiz-adv-x="1456" 
d="M387 0h-197v1440h197v-609h684v609h195v-1440h-195v645h-684v-645z" />
    <glyph glyph-name="I" unicode="I" horiz-adv-x="577" 
d="M387 0h-197v1440h197v-1440z" />
    <glyph glyph-name="J" unicode="J" horiz-adv-x="1183" 
d="M811 1440l195 -4v-987q0 -212 -136 -345q-139 -133 -346 -133q-209 0 -344 135t-135 347h197q0 -130 77 -213q77 -80 203 -80q130 0 209 82q80 83 80 215v983z" />
    <glyph glyph-name="K" unicode="K" horiz-adv-x="1228" 
d="M190 1440h197v-670l594 670h236l-625 -701l633 -739h-254l-584 686v-686h-197v1440z" />
    <glyph glyph-name="L" unicode="L" horiz-adv-x="1075" 
d="M1040 0h-850v1440h197v-1260h653v-180z" />
    <glyph glyph-name="M" unicode="M" horiz-adv-x="1894" 
d="M381 0h-191v1440h238l522 -1116l525 1116h229v-1440h-191v1104l-526 -1106h-80l-526 1116v-1114z" />
    <glyph glyph-name="N" unicode="N" horiz-adv-x="1460" 
d="M377 0h-187v1440h189l704 -1114v1114h187v-1440h-191l-702 1112v-1112z" />
    <glyph glyph-name="O" unicode="O" horiz-adv-x="1697" 
d="M94 721l-2 -2q0 313 215 528t539 215q322 0 540 -215t218 -528q0 -314 -218 -529t-540 -215t-537 215t-215 531zM1397 719q0 230 -160 395q-158 162 -393 162q-236 0 -391 -162q-158 -166 -158 -395q0 -231 158 -397q157 -160 393 -160t393 160q158 166 158 397z" />
    <glyph glyph-name="P" unicode="P" horiz-adv-x="1310" 
d="M387 0h-197v1440h515q242 0 395 -123t153 -330q0 -216 -153 -342q-157 -127 -395 -127h-318v-518zM694 1266l-309 -2v-574h307q156 0 256 80q99 80 99 215q0 129 -99 205q-94 76 -254 76z" />
    <glyph glyph-name="Q" unicode="Q" horiz-adv-x="1699" 
d="M94 721h-2q0 313 215 528t539 215q322 0 540 -215t218 -528q0 -167 -68 -315q-68 -151 -193 -252l244 -316h-217l-172 219q-78 -40 -168 -61q-83 -21 -184 -21q-322 0 -537 215t-215 531zM1079 207l-395 514h217l324 -416q83 77 129 184q45 102 45 232q0 230 -160 395
q-158 162 -393 162q-236 0 -391 -162q-158 -166 -158 -395q0 -233 158 -399q155 -162 391 -162q64 0 123 12q46 9 110 35z" />
    <glyph glyph-name="R" unicode="R" horiz-adv-x="1361" 
d="M387 0l-201 2v1440h516q238 0 388 -117q149 -116 149 -313q0 -181 -119 -297q-124 -118 -319 -144l508 -571h-252l-496 565h-174v-565zM692 1270h-309v-541h309q152 0 246 76t94 203q0 120 -94 190q-97 72 -246 72z" />
    <glyph glyph-name="S" unicode="S" horiz-adv-x="1245" 
d="M610 1464l2 -4q229 0 361 -117t147 -333h-200q-9 139 -91 209q-83 71 -219 71q-127 0 -202 -57q-78 -60 -78 -154q0 -80 47 -133q48 -48 178 -88l207 -59q213 -62 299 -154t86 -237q0 -203 -135 -320t-367 -117q-254 0 -399 127t-154 363h199q6 -153 98 -236
q88 -82 252 -82q143 0 227 66q82 64 82 184q0 83 -55 135q-56 53 -217 99l-170 49q-213 62 -295 153q-82 88 -82 240q0 174 135 285q134 110 344 110z" />
    <glyph glyph-name="T" unicode="T" horiz-adv-x="1105" 
d="M649 0h-194v1260h-422v180h1040v-180h-424v-1260z" />
    <glyph glyph-name="U" unicode="U" horiz-adv-x="1409" 
d="M1036 1440l197 -6v-965q0 -217 -150 -358q-151 -142 -381 -142q-225 0 -376 142q-150 141 -150 360v965h197v-959q0 -140 92 -229q88 -88 235 -88q156 0 244 88q92 89 92 233v959z" />
    <glyph glyph-name="V" unicode="V" horiz-adv-x="1325" 
d="M766 0h-209l-510 1440h219l400 -1178l405 1178h207z" />
    <glyph glyph-name="W" unicode="W" horiz-adv-x="2027" 
d="M682 0h-209l-422 1440h211l326 -1164l342 1164h182l336 -1151l328 1151h202l-424 -1440h-208l-330 1096z" />
    <glyph glyph-name="X" unicode="X" horiz-adv-x="1335" 
d="M238 0h-224l533 729l-514 711h229l404 -563l411 563h221l-514 -707l541 -733h-233l-428 582z" />
    <glyph glyph-name="Y" unicode="Y" horiz-adv-x="1294" 
d="M748 0h-197v524l-500 916h219l381 -715l387 715h205l-495 -903v-537z" />
    <glyph glyph-name="Z" unicode="Z" horiz-adv-x="1179" 
d="M1098 0h-1016v160l768 1100h-758v180h995v-168l-765 -1092h776v-180z" />
    <glyph glyph-name="bracketleft" unicode="[" horiz-adv-x="712" 
d="M657 1659v-174h-282v-1598h282v-174h-471v1946h471z" />
    <glyph glyph-name="backslash" unicode="\" horiz-adv-x="813" 
d="M258 1659l485 -1946h-188l-485 1946h188z" />
    <glyph glyph-name="bracketright" unicode="]" horiz-adv-x="712" 
d="M55 1659h471v-1946h-471v174h283v1598h-283v174z" />
    <glyph glyph-name="asciicircum" unicode="^" horiz-adv-x="1167" 
d="M494 1440h182l368 -858h-198l-262 622l-262 -622h-199z" />
    <glyph glyph-name="underscore" unicode="_" horiz-adv-x="901" 
d="M-2 -270h905v-164h-905v164z" />
    <glyph glyph-name="grave" unicode="`" horiz-adv-x="534" 
d="M258 1171l-168 297h182l164 -297h-178z" />
    <glyph glyph-name="a" unicode="a" horiz-adv-x="1126" 
d="M795 0l2 150q-58 -82 -150 -130q-86 -45 -198 -45q-154 0 -248 82q-99 83 -99 211q0 127 82 209q82 83 252 123l352 82v14q0 94 -63 148q-64 55 -172 55q-103 0 -166 -51q-68 -53 -80 -137h-180q15 151 135 250q119 98 293 98q196 0 307 -105t111 -282v-672h-178z
M485 133v-4q129 0 217 94q89 95 89 228v75l-306 -71q-94 -21 -145 -66q-49 -43 -49 -104q0 -72 51 -111q53 -41 143 -41z" />
    <glyph glyph-name="b" unicode="b" 
d="M346 0h-178v1518h188v-652q72 93 172 142q101 49 222 49q224 0 372 -154t148 -385q0 -233 -150 -389t-377 -156q-120 0 -225 54t-172 151v-178zM1077 518v-2q0 157 -104 264t-260 107t-260 -107q-105 -108 -105 -264t105 -264q104 -107 260 -107q154 0 260 109
q104 107 104 264z" />
    <glyph glyph-name="c" unicode="c" horiz-adv-x="1239" 
d="M635 1059q199 0 342 -119q144 -120 184 -307h-188q-34 114 -127 182q-92 68 -211 68q-153 0 -258 -105t-105 -260q0 -156 105 -264q104 -107 258 -107q118 0 215 72q95 71 129 184h186q-40 -191 -186 -313q-143 -119 -344 -119q-235 0 -393 158t-158 387t158 387
q156 156 393 156z" />
    <glyph glyph-name="d" unicode="d" 
d="M606 -25l-8 2q-223 0 -371 154q-147 153 -147 385q0 234 149 389q150 156 377 156q120 0 221 -49q100 -49 172 -142v650h189v-1518h-178v182q-68 -95 -174 -153q-106 -56 -230 -56zM272 518q0 -156 105 -264q104 -107 260 -107t260 107t104 264t-104 264t-260 107
t-260 -107q-105 -108 -105 -264z" />
    <glyph glyph-name="e" unicode="e" horiz-adv-x="1243" 
d="M627 137h-4q107 0 192 49q84 49 129 140h186q-53 -166 -188 -258q-133 -95 -317 -95q-230 0 -385 158q-154 157 -154 387q0 223 158 381t385 158q229 0 381 -152q151 -151 151 -375v-65h-889q15 -144 115 -236t240 -92zM623 897l-2 2q-132 0 -220 -76q-91 -79 -125 -202
h689q-30 127 -123 202q-92 74 -219 74z" />
    <glyph glyph-name="f" unicode="f" horiz-adv-x="727" 
d="M428 0l-188 -2v866h-179v168h179v119q0 185 96 289q93 100 276 100q22 0 68 -4q44 -4 68 -10v-166q-20 5 -58 10q-32 4 -45 4q-113 0 -166 -53q-51 -51 -51 -170v-117h268v-168h-268v-866z" />
    <glyph glyph-name="g" unicode="g" horiz-adv-x="1290" 
d="M96 -49l187 -4q3 -112 94 -185q87 -69 235 -69q144 0 234 84t90 219v223q-62 -80 -156 -129q-86 -45 -202 -45q-210 0 -349 145t-139 361t141 360q143 146 353 146q111 0 207 -47q90 -44 157 -136v158h178v-1018q0 -214 -141 -346q-137 -131 -375 -131q-217 0 -364 117
t-150 297zM283 549l-4 4q0 -148 94 -242q94 -98 235 -98q144 0 238 98q96 104 96 240q0 146 -94 240q-94 98 -236 98q-141 0 -235 -98q-94 -94 -94 -242z" />
    <glyph glyph-name="h" unicode="h" horiz-adv-x="1226" 
d="M354 0l-188 -2v1518h188v-619q54 75 140 117q87 41 182 41q181 0 289 -111q108 -114 108 -293v-653h-188v625q0 119 -68 190q-69 72 -188 72q-121 0 -199 -84q-76 -82 -76 -209v-592z" />
    <glyph glyph-name="i" unicode="i" horiz-adv-x="528" 
d="M131 1364h-4q0 55 37 92t96 37t96 -37t37 -92t-37 -92t-94 -37t-94 37t-37 92zM354 0h-188v1034h188v-1034z" />
    <glyph glyph-name="j" unicode="j" horiz-adv-x="540" 
d="M403 1368q0 -52 -36 -88q-37 -37 -93 -37q-51 0 -92 35q-37 34 -37 90t37 90q41 35 92 35q56 0 93 -37q36 -36 36 -88zM182 1034l180 -2v-1108q0 -191 -92 -291q-91 -98 -280 -98h-31q-9 0 -37 4v166q6 -2 25 -2h16q114 0 166 55q53 59 53 170v1106z" />
    <glyph glyph-name="k" unicode="k" horiz-adv-x="1052" 
d="M354 0h-188v1518h188v-924l410 440h229l-440 -465l514 -569h-246l-467 522v-522z" />
    <glyph glyph-name="l" unicode="l" horiz-adv-x="528" 
d="M170 1518h188v-1518h-188v1518z" />
    <glyph glyph-name="m" unicode="m" horiz-adv-x="1908" 
d="M354 0l-180 -8v1034h180v-147q52 83 135 129q80 45 183 45q118 0 209 -54q89 -53 135 -147q53 96 145 147q97 54 207 54q177 0 285 -111q106 -106 106 -293v-653h-188v625q0 118 -66 190t-182 72q-118 0 -193 -84q-73 -82 -73 -209v-592h-189v625q0 119 -65 190
q-66 72 -182 72q-118 0 -193 -84q-74 -83 -74 -209v-592z" />
    <glyph glyph-name="n" unicode="n" horiz-adv-x="1226" 
d="M354 0l-186 -6v1034h180v-145q57 84 141 127q85 43 189 43q181 0 289 -111q108 -114 108 -293v-653h-188v610q0 131 -68 205t-190 74q-121 0 -199 -84q-76 -82 -76 -209v-592z" />
    <glyph glyph-name="o" unicode="o" horiz-adv-x="1269" 
d="M84 518v-6q0 229 158 387q156 156 393 156t393 -156q158 -158 158 -383q0 -229 -158 -387q-156 -156 -393 -156q-235 0 -393 158t-158 387zM999 512h-4q0 153 -104 260t-258 107t-258 -107q-105 -108 -105 -260q0 -156 105 -264q104 -107 260 -107t260 107t104 264z" />
    <glyph glyph-name="p" unicode="p" 
d="M166 -434l4 1470h180v-178q71 95 174 148q109 53 230 53q224 0 372 -154t148 -385q0 -233 -150 -389t-376 -156q-119 0 -222 50q-101 49 -172 141v-600h-188zM1079 520v-2q0 157 -104 264t-260 107t-260 -107q-105 -108 -105 -264t105 -264q104 -107 260 -107
q154 0 260 109q104 107 104 264z" />
    <glyph glyph-name="q" unicode="q" 
d="M606 -25l-6 -2q-223 0 -371 154q-147 153 -147 385q0 234 149 389q150 156 377 156q119 0 228 -53q107 -55 174 -152v180h178v-1468h-189v602q-71 -92 -172 -141q-103 -50 -221 -50zM274 514q0 -156 105 -264q104 -107 260 -107t260 107q105 108 105 264t-105 264
q-104 107 -260 107t-260 -107q-105 -108 -105 -264z" />
    <glyph glyph-name="r" unicode="r" horiz-adv-x="778" 
d="M674 870l-6 -2q-146 0 -232 -92t-86 -235v-543h-188v1034h180v-192q50 98 137 153q91 54 195 54h31q18 0 24 -3v-178q-28 4 -31 4h-24z" />
    <glyph glyph-name="s" unicode="s" horiz-adv-x="1017" 
d="M508 1059l-14 2q176 0 286 -84q106 -81 115 -240h-193q-3 86 -55 129t-153 43q-91 0 -146 -37t-55 -96q0 -56 37 -86q40 -32 153 -57l125 -29q171 -41 240 -110q72 -72 72 -187q0 -153 -111 -241q-109 -89 -295 -89q-205 0 -324 93q-116 91 -122 264h196q3 -101 68 -154
q63 -51 178 -51q106 0 164 43q59 44 59 119q0 58 -37 92q-36 34 -133 55l-151 35q-165 38 -232 105t-67 182q0 135 110 217q107 82 285 82z" />
    <glyph glyph-name="t" unicode="t" horiz-adv-x="774" 
d="M221 1034l2 324l189 45v-367h270v-168h-270v-532q0 -111 39 -150q40 -43 129 -43q34 0 75 13q41 15 78 39v-168q-44 -27 -92 -39q-50 -13 -100 -13q-160 0 -240 86t-80 261v544h-174v168h174z" />
    <glyph glyph-name="u" unicode="u" horiz-adv-x="1208" 
d="M588 147v5q117 0 192 84q74 83 74 208v592h188v-1034h-180v148q-53 -84 -135 -130q-80 -45 -182 -45q-175 0 -283 111q-106 106 -106 293v653h188v-610q0 -123 66 -201q65 -74 178 -74z" />
    <glyph glyph-name="v" unicode="v" horiz-adv-x="1087" 
d="M649 0h-211l-395 1034h199l305 -815l303 815h194z" />
    <glyph glyph-name="w" unicode="w" horiz-adv-x="1740" 
d="M594 0h-191l-362 1034h188l277 -811l276 811h181l278 -813l277 813h182l-363 -1034h-188l-279 795z" />
    <glyph glyph-name="x" unicode="x" horiz-adv-x="1036" 
d="M227 0h-202l383 524l-367 510h213l270 -377l271 377h200l-368 -508l387 -526h-217l-285 391z" />
    <glyph glyph-name="y" unicode="y" horiz-adv-x="1085" 
d="M848 1034h194l-559 -1468h-188l156 420l-410 1048h199l305 -813z" />
    <glyph glyph-name="z" unicode="z" horiz-adv-x="1024" 
d="M956 0h-888v127l632 739h-604v168h836v-135l-615 -731h639v-168z" />
    <glyph glyph-name="braceleft" unicode="{" horiz-adv-x="706" 
d="M301 739l-2 -18q63 -23 94 -84q31 -60 31 -166v-399q0 -107 41 -166q41 -56 117 -56h30l35 5v-174q-21 -3 -37 -3h-30q-166 0 -254 97q-86 95 -86 282v410q0 100 -33 139q-34 43 -105 43h-34v158h34q71 0 105 43q33 39 33 137v307q0 188 86 283q87 96 254 96h30
q23 0 37 -2v-174q-28 4 -35 4h-30q-77 0 -117 -55q-39 -51 -39 -166v-297q0 -102 -31 -162q-30 -58 -94 -82z" />
    <glyph glyph-name="bar" unicode="|" horiz-adv-x="561" 
d="M186 1659h189v-1946h-189v1946z" />
    <glyph glyph-name="braceright" unicode="}" horiz-adv-x="706" 
d="M406 739h-3q-63 23 -94 84q-30 59 -30 164v297q0 115 -39 166q-40 55 -117 55h-31q-21 0 -35 -2v174q28 4 37 4h31q169 0 254 -94q86 -95 86 -282v-308q0 -98 33 -137q34 -43 104 -43h35v-158h-35q-70 0 -104 -43q-33 -39 -33 -137v-409q0 -188 -86 -283
q-85 -94 -254 -94h-31q-9 0 -37 4v174q14 -2 35 -2h31q77 0 117 55q41 59 41 166v399q0 107 30 166q31 60 95 84z" />
    <glyph glyph-name="asciitilde" unicode="~" horiz-adv-x="1167" 
d="M629 844l-8 -4q73 -36 116 -47q50 -11 76 -11q69 0 123 31q49 28 117 121v-189q-40 -66 -105 -104q-64 -37 -147 -37q-53 0 -99 12q-49 15 -122 52q-63 34 -117 51q-43 12 -90 12q-80 0 -142 -39q-65 -40 -114 -117v185q34 61 108 106q73 43 158 43q51 0 104 -12
q52 -12 142 -53z" />
    <glyph glyph-name="uni00A0" unicode="&#xa0;" horiz-adv-x="514" 
 />
    <glyph glyph-name="exclamdown" unicode="&#xa1;" horiz-adv-x="534" 
d="M410 920v-7q0 -59 -41 -100q-39 -39 -103 -39q-59 0 -100 41q-39 39 -39 103q0 57 41 98t98 41q64 0 103 -39q41 -41 41 -98zM330 580l37 -482v-510h-199v510l37 482h125z" />
    <glyph glyph-name="cent" unicode="&#xa2;" horiz-adv-x="1241" 
d="M729 -14l-192 -45v262q-201 35 -326 184t-125 350q0 199 127 350t324 185v223l188 43v-264q169 -27 289 -141q118 -112 153 -277h-188q-34 114 -127 182q-92 68 -211 68q-153 0 -258 -105q-104 -104 -104 -260q0 -157 104 -264q103 -106 258 -106q120 0 215 71
q94 70 129 185h186q-34 -169 -153 -285q-120 -117 -289 -141v-215z" />
    <glyph glyph-name="sterling" unicode="&#xa3;" horiz-adv-x="1374" 
d="M1270 0l-1170 -6v156q92 19 156 110q63 86 63 219v35q0 30 -2 57h-215v160h193q-8 41 -15.5 91.5t-9.5 60.5q-6 44 -6 75q0 237 135 369q139 133 363 133q227 0 364 -131q138 -132 138 -371h-195q0 151 -80 234q-81 84 -221 84t-223 -86q-82 -82 -82 -236q0 -13 4 -67
q2 -31 25 -154h374v-160h-352q1 -9 2 -19.5t1.5 -16t0.5 -9.5v-24q0 -97 -31 -185q-30 -85 -84 -139h867v-180z" />
    <glyph glyph-name="currency" unicode="&#xa4;" horiz-adv-x="1314" 
d="M311 170h-200l225 307q-37 51 -55 111q-19 62 -19 121q0 67 21 122q20 57 57 111l-229 311h202l148 -200q53 31 96 43q43 14 102 14q60 0 103 -14q43 -12 96 -43l146 200h202l-227 -309q37 -52 55 -110q19 -62 19 -123t-19 -123q-18 -60 -55 -111l225 -307h-203l-143 197
q-53 -31 -96 -43q-46 -15 -103 -15q-55 0 -104 15q-40 12 -100 43zM662 471l-3 -4q100 0 168 68t68 170q0 101 -68 169t-168 68q-99 0 -167 -68t-68 -167q0 -100 68 -168t170 -68z" />
    <glyph glyph-name="yen" unicode="&#xa5;" horiz-adv-x="1308" 
d="M754 0h-197v283h-362v153h362v88l-18 35h-344v154h260l-398 727h219l381 -715l387 715h205l-399 -727h266v-154h-350l-12 -22v-101h362v-153h-362v-283z" />
    <glyph glyph-name="brokenbar" unicode="&#xa6;" horiz-adv-x="573" 
d="M193 1659h188v-819h-188v819zM193 -287v819h188v-819h-188z" />
    <glyph glyph-name="section" unicode="&#xa7;" horiz-adv-x="1173" 
d="M764 508l-254 102q-248 104 -332 201q-86 100 -86 244q0 180 133 295q130 112 342 112q232 0 363 -119q136 -118 145 -331h-194q-9 133 -88 209q-79 73 -220 73q-125 0 -202 -65q-76 -64 -76 -176q0 -62 31 -113q29 -51 94 -92q28 -22 78 -43l147 -68l322 -137v-92h-203z
M406 492l249 -109q248 -104 332 -201q86 -100 86 -241q0 -184 -129 -295t-338 -111q-229 0 -368 121t-148 332h195q9 -137 90 -209q80 -74 219 -74q125 0 203 66q77 65 77 176q0 63 -30 112q-30 53 -94 93q-50 31 -76 43q-115 52 -150 67l-321 137v93h203z" />
    <glyph glyph-name="dieresis" unicode="&#xa8;" horiz-adv-x="692" 
d="M305 1309h-2q0 -47 -31 -78t-75 -31q-45 0 -76 31t-31 78q0 46 31 77t78 31q44 0 75 -31t31 -77zM602 1309l-4 -4q0 -45 -31 -76t-75 -31q-45 0 -76 31t-31 78q0 46 31 77t78 31q46 0 77 -31t31 -75z" />
    <glyph glyph-name="copyright" unicode="&#xa9;" horiz-adv-x="1675" 
d="M1581 719l-8 -6q0 -308 -217 -525t-525 -217q-305 0 -524 219q-217 217 -217 527q0 309 219 528t527 219q309 0 526 -217q219 -219 219 -528zM211 713v-2q0 -255 182 -437t436 -182q255 0 437 182t182 437q0 252 -182 440q-181 184 -437 184q-255 0 -436 -184
q-182 -188 -182 -438zM831 1116l-2 -2q149 0 265 -90q110 -91 137 -238h-193q-22 73 -77 111q-59 41 -130 41q-93 0 -159 -66q-64 -64 -64 -163q0 -100 64 -164q66 -66 159 -66q78 0 136 43q57 42 75 113h193q-27 -147 -137 -240q-112 -92 -267 -92q-177 0 -294 117
t-117 291q0 171 117 288t294 117z" />
    <glyph glyph-name="ordfeminine" unicode="&#xaa;" horiz-adv-x="755" 
d="M475 934l2 63q-23 -33 -65 -55q-39 -20 -90 -20q-72 0 -125 41q-50 41 -50 108q0 65 43 105q42 40 136 61l143 33v6q0 33 -25 55q-21 21 -63 21q-45 0 -66 -21q-25 -19 -28 -55h-133q3 82 67 137t160 55q106 0 164 -55q59 -56 59 -149v-330h-129zM352 1032l-2 -4
q50 0 84 37q35 41 35 82v22l-115 -26q-31 -8 -51 -25q-18 -15 -18 -37q0 -25 18 -37t49 -12zM156 786h448v-133h-448v133z" />
    <glyph glyph-name="guillemotleft" unicode="&#xab;" horiz-adv-x="935" 
d="M317 72l-223 448l223 451h185l-223 -451l223 -448h-185zM649 72l-223 448l223 451h185l-224 -451l224 -448h-185z" />
    <glyph glyph-name="logicalnot" unicode="&#xac;" horiz-adv-x="1167" 
d="M113 649v152h923v-545h-151v393h-772z" />
    <glyph glyph-name="uni00AD" unicode="&#xad;" horiz-adv-x="753" 
d="M131 750h492v-181h-492v181z" />
    <glyph glyph-name="registered" unicode="&#xae;" horiz-adv-x="1232" 
d="M616 455l-2 -2q-211 0 -358 147t-147 358q0 214 147 361t358 147q214 0 361 -147t147 -358q0 -212 -147 -359t-359 -147zM614 1348l-2 -5q-164 0 -276 -112q-113 -113 -113 -277q0 -161 115 -276q113 -113 276 -113q162 0 277 115q113 113 113 276q0 164 -113 277
q-115 115 -277 115zM543 719h-127v475h231q78 0 129 -45q53 -47 53 -117q0 -51 -26 -90t-74 -61l125 -162h-147l-111 143h-53v-143zM633 1083l-90 -2v-120h90q31 0 49 18t18 45q0 28 -18 43q-22 16 -49 16z" />
    <glyph glyph-name="macron" unicode="&#xaf;" horiz-adv-x="729" 
d="M641 1231h-551v129h551v-129z" />
    <glyph glyph-name="degree" unicode="&#xb0;" horiz-adv-x="776" 
d="M686 1167q0 -123 -86 -209t-209 -86q-122 0 -211 86q-88 85 -88 209t88 209q89 86 211 86q123 0 209 -86t86 -209zM219 1167l-2 -4q0 -70 49 -119t121 -49q70 0 119 49t49 121t-49 121t-119 49t-119 -49t-49 -119z" />
    <glyph glyph-name="plusminus" unicode="&#xb1;" horiz-adv-x="1167" 
d="M659 336h-151v346h-385v149h385v347h151v-347h385v-149h-385v-346zM121 10v152h923v-152h-923z" />
    <glyph glyph-name="twosuperior" unicode="&#xb2;" horiz-adv-x="663" 
d="M598 1008l-524 6v121l274 254q40 40 55 67q17 31 17 60q0 39 -27 63q-28 25 -74 25q-45 0 -73 -31t-31 -74h-154q6 108 80 176t189 68q114 0 182 -62t68 -159q0 -60 -31 -117q-32 -54 -111 -127l-139 -127h299v-143z" />
    <glyph glyph-name="threesuperior" unicode="&#xb3;" horiz-adv-x="655" 
d="M59 1217l144 -9q3 -40 37 -67t79 -27q47 0 84 29q31 28 31 74q0 53 -33 79q-37 29 -92 29h-61v109h57q53 0 80 24q29 26 29 66t-25 65t-67 25q-46 0 -74 -25t-31 -65h-149q6 95 77 157t185 62q108 0 172 -55q63 -54 63 -138q0 -56 -24 -96t-72 -65q57 -21 88 -68
q31 -48 31 -111q0 -91 -74 -153t-192 -62q-116 0 -187 62q-70 61 -76 160z" />
    <glyph glyph-name="acute" unicode="&#xb4;" horiz-adv-x="534" 
d="M276 1171h-180l166 297h182z" />
    <glyph glyph-name="mu" unicode="&#xb5;" horiz-adv-x="1241" 
d="M610 147l-2 3q119 0 193 83q73 82 73 209v592h189v-1034h-180v147q-53 -83 -135 -129q-80 -45 -183 -45q-54 0 -108 13q-45 10 -90 37v-459h-189v1468h189v-610q0 -124 65 -201q65 -74 178 -74z" />
    <glyph glyph-name="paragraph" unicode="&#xb6;" horiz-adv-x="1284" 
d="M715 1440l-4 -1731h-156v858h-16q-211 0 -344 121q-134 122 -134 324q0 193 136 311q135 117 346 117h172zM1073 -291h-155v1727h155v-1727z" />
    <glyph glyph-name="periodcentered" unicode="&#xb7;" horiz-adv-x="526" 
d="M406 737l-5 -6q0 -57 -41 -98q-39 -39 -102 -39q-57 0 -98 41t-41 98q0 62 41 103t102 41q64 0 103 -39q41 -41 41 -101z" />
    <glyph glyph-name="cedilla" unicode="&#xb8;" horiz-adv-x="870" 
d="M119 -209l153 250h142l-90 -147h6q101 0 159 -58q62 -59 62 -149q0 -89 -68 -148q-71 -59 -166 -59q-96 0 -161 53q-62 53 -68 141h143q3 -35 29 -55q20 -20 59 -20q38 0 62 24q25 25 25 62q0 38 -25 63t-64 25q-30 0 -45 -9q-21 -9 -41 -32z" />
    <glyph glyph-name="onesuperior" unicode="&#xb9;" horiz-adv-x="432" 
d="M326 1008h-150v577h-145l35 144h260v-721z" />
    <glyph glyph-name="ordmasculine" unicode="&#xba;" horiz-adv-x="837" 
d="M694 1198h4q0 -119 -80 -199q-79 -79 -198 -79q-118 0 -197 79q-80 80 -80 197q0 110 80 190t195 80q113 0 196 -77q80 -77 80 -191zM291 1194l-2 -2q0 -58 37 -98q36 -39 96 -39t96 39q37 40 37 100q0 58 -37 98q-36 39 -96 39q-58 0 -94 -39q-37 -40 -37 -98zM156 786
h532v-133h-532v133z" />
    <glyph glyph-name="guillemotright" unicode="&#xbb;" horiz-adv-x="935" 
d="M618 72h-184l223 448l-223 451h184l224 -451zM287 72h-185l224 448l-224 451h185l223 -451z" />
    <glyph glyph-name="onequarter" unicode="&#xbc;" horiz-adv-x="1409" 
d="M729 252l277 469h172l-275 -453h187v127l147 33v-160h57v-137h-57v-131h-147v131h-361v121zM418 719h-150v577h-145l35 144h260v-721zM1157 1440h172l-1093 -1440h-173z" />
    <glyph glyph-name="onehalf" unicode="&#xbd;" horiz-adv-x="1478" 
d="M1376 0l-524 6v121l274 254q41 41 56 68q16 29 16 59q0 39 -27 63q-28 25 -73 25q-46 0 -74 -31t-31 -73h-153q6 108 80 176q73 67 188 67t182 -61q68 -62 68 -160q0 -60 -31 -117q-33 -56 -110 -127l-140 -127h299v-143zM416 725h-150v578h-145l35 143h260v-721z
M1155 1446h172l-1094 -1440h-172z" />
    <glyph glyph-name="threequarters" unicode="&#xbe;" horiz-adv-x="1464" 
d="M795 252l276 469h172l-274 -453h186v127l148 33v-160h57v-137h-57v-131h-148v131h-360v121zM1223 1440h172l-1094 -1440h-172zM90 928l143 -8q3 -41 37 -68q35 -27 80 -27q47 0 84 29q31 28 31 74q0 54 -33 80q-36 28 -92 28h-61v109h57q53 0 80 24q28 25 28 66t-24 65
q-25 25 -68 25q-45 0 -73 -25t-31 -65h-150q6 95 78 158q70 61 184 61q108 0 172 -55t64 -137q0 -55 -25 -97q-24 -41 -71 -65q57 -21 88 -68q30 -46 30 -110q0 -93 -73 -154t-193 -61q-116 0 -186 61t-76 160z" />
    <glyph glyph-name="questiondown" unicode="&#xbf;" horiz-adv-x="1081" 
d="M438 920v-5q0 58 41 99t103 41q57 0 98 -41t41 -99q0 -61 -39 -100t-100 -39q-62 0 -103 41t-41 103zM672 496l-234 -207q-74 -68 -116 -154q-39 -77 -39 -172q0 -102 69 -162q70 -61 185 -61q125 0 202 74q78 75 84 200h195q-9 -204 -141 -327t-351 -123
q-203 0 -321 106q-123 108 -123 283q0 118 53 233q52 110 164 213l197 183h176v-86z" />
    <glyph glyph-name="Agrave" unicode="&#xc0;" horiz-adv-x="1384" 
d="M588 1440h209l549 -1440h-211l-129 352h-639l-129 -352h-201zM944 518l-258 699l-258 -699h516zM602 1567l-168 297h182l164 -297h-178z" />
    <glyph glyph-name="Aacute" unicode="&#xc1;" horiz-adv-x="1384" 
d="M588 1440h209l549 -1440h-211l-129 352h-639l-129 -352h-201zM944 518l-258 699l-258 -699h516zM782 1567h-180l166 297h182z" />
    <glyph glyph-name="Acircumflex" unicode="&#xc2;" horiz-adv-x="1384" 
d="M588 1440h209l549 -1440h-211l-129 352h-639l-129 -352h-201zM944 518l-258 699l-258 -699h516zM369 1567l237 297h168l240 -297h-168l-154 190l-157 -190h-166z" />
    <glyph glyph-name="Atilde" unicode="&#xc3;" horiz-adv-x="1384" 
d="M588 1440h209l549 -1440h-211l-129 352h-639l-129 -352h-201zM944 518l-258 699l-258 -699h516zM750 1751l-5 -2l43 -37q8 -8 25 -8q29 0 41 25q13 24 23 88h127q-9 -125 -56 -187q-46 -61 -135 -61q-46 0 -74 14q-32 14 -80 62q-22 29 -43 41q-17 10 -34 10
q-37 0 -56 -29q-18 -32 -26 -92h-127q9 126 61 190t152 64q32 0 78 -17q37 -15 86 -61z" />
    <glyph glyph-name="Adieresis" unicode="&#xc4;" horiz-adv-x="1384" 
d="M588 1440h209l549 -1440h-211l-129 352h-639l-129 -352h-201zM944 518l-258 699l-258 -699h516zM651 1700h-2q0 -47 -31 -78t-75 -31q-45 0 -76 31t-31 78t31 78q30 30 78 30q46 0 76 -30t30 -78zM948 1700l-4 -4q0 -45 -31 -76t-75 -31q-45 0 -76 31t-31 78t31 78
q30 30 78 30t78 -30t30 -76z" />
    <glyph glyph-name="Aring" unicode="&#xc5;" horiz-adv-x="1384" 
d="M588 1440h209l549 -1440h-211l-129 352h-639l-129 -352h-201zM944 518l-258 699l-258 -699h516zM899 1749l-2 -4q0 -83 -61 -141q-58 -58 -148 -58q-87 0 -147 60t-60 141q0 82 62 141q66 60 147 60q90 0 148 -58q61 -58 61 -141zM598 1745l-2 -4q0 -41 27 -68
q26 -26 67 -26q40 0 68 28t28 68q0 41 -26 67q-29 29 -68 29q-40 0 -67 -27t-27 -67z" />
    <glyph glyph-name="AE" unicode="&#xc6;" horiz-adv-x="1908" 
d="M1796 0h-889v352h-532l-213 -352h-205l862 1440h967v-180h-682v-441h633v-172h-633v-467h692v-180zM907 1235l-432 -717h432v717z" />
    <glyph glyph-name="Ccedilla" unicode="&#xc7;" horiz-adv-x="1642" 
d="M1362 565l203 -2q-49 -240 -232 -405q-181 -163 -436 -181l-51 -83h6q102 0 160 -58q61 -58 61 -149q0 -90 -67 -148q-71 -59 -166 -59q-97 0 -162 53q-62 53 -68 141h144q3 -36 28 -55q20 -20 60 -20q37 0 61 24q25 25 25 62q0 38 -25 63t-63 25q-30 0 -45 -9
q-21 -9 -41 -32l-113 59l115 189q-285 27 -473 239q-189 213 -189 504q0 313 215 528t531 215q269 0 467 -155q199 -156 258 -412h-211q-55 171 -197 277q-140 104 -321 104q-229 0 -381 -162q-154 -165 -154 -395q0 -234 154 -399q152 -162 381 -162q190 0 333 110
q143 107 193 293z" />
    <glyph glyph-name="Egrave" unicode="&#xc8;" horiz-adv-x="1191" 
d="M543 1567l-168 297h182l164 -297h-178zM1079 0h-889v1440h879v-180h-682v-441h633v-172h-633v-467h692v-180z" />
    <glyph glyph-name="Eacute" unicode="&#xc9;" horiz-adv-x="1191" 
d="M1079 0h-889v1440h879v-180h-682v-441h633v-172h-633v-467h692v-180zM723 1567h-180l166 297h182z" />
    <glyph glyph-name="Ecircumflex" unicode="&#xca;" horiz-adv-x="1191" 
d="M307 1567l238 297h168l239 -297h-168l-153 190l-158 -190h-166zM1079 0h-889v1440h879v-180h-682v-441h633v-172h-633v-467h692v-180z" />
    <glyph glyph-name="Edieresis" unicode="&#xcb;" horiz-adv-x="1191" 
d="M1079 0h-889v1440h879v-180h-682v-441h633v-172h-633v-467h692v-180zM592 1700h-2q0 -47 -31 -78t-76 -31q-44 0 -75 31t-31 78t31 78q30 30 77 30q46 0 76 -30q31 -31 31 -78zM889 1700l-4 -4q0 -45 -31 -76t-76 -31t-76 31q-30 30 -30 78t30 78t78 30t78 -30
q31 -31 31 -76z" />
    <glyph glyph-name="Igrave" unicode="&#xcc;" horiz-adv-x="577" 
d="M387 0h-197v1440h197v-1440zM201 1567l-168 297h182l164 -297h-178z" />
    <glyph glyph-name="Iacute" unicode="&#xcd;" horiz-adv-x="577" 
d="M387 0h-197v1440h197v-1440zM381 1567h-180l166 297h182z" />
    <glyph glyph-name="Icircumflex" unicode="&#xce;" horiz-adv-x="577" 
d="M387 0h-197v1440h197v-1440zM-33 1567l238 297h168l239 -297h-168l-153 190l-158 -190h-166z" />
    <glyph glyph-name="Idieresis" unicode="&#xcf;" horiz-adv-x="577" 
d="M387 0h-197v1440h197v-1440zM250 1700h-2q0 -47 -31 -78t-76 -31q-44 0 -75 31t-31 78t31 78q30 30 77 30q46 0 76 -30q31 -31 31 -78zM547 1700l-4 -4q0 -45 -31 -76t-76 -31t-76 31q-30 30 -30 78t30 78t78 30t78 -30q31 -31 31 -76z" />
    <glyph glyph-name="Eth" unicode="&#xd0;" horiz-adv-x="1581" 
d="M711 0l-504 -2v637h-162v164h162v639h502q338 0 557 -195q215 -194 215 -520q0 -329 -215 -526t-555 -197zM403 635v-449h299q258 0 416 146t158 393q0 242 -158 385q-156 141 -416 141h-299v-452h402v-164h-402z" />
    <glyph glyph-name="Ntilde" unicode="&#xd1;" horiz-adv-x="1460" 
d="M791 1751l-5 -2l43 -37q8 -8 25 -8q28 0 41 25q13 24 23 88h126q-9 -126 -55 -187t-135 -61q-46 0 -74 14q-32 14 -80 62q-22 29 -43 41q-17 10 -34 10q-37 0 -56 -29q-18 -32 -26 -92h-127q9 126 61 190t152 64q32 0 78 -17q37 -15 86 -61zM373 -2h-187v1440h189
l704 -1114v1114h187v-1440h-191l-702 1112v-1112z" />
    <glyph glyph-name="Ograve" unicode="&#xd2;" horiz-adv-x="1697" 
d="M760 1567l-168 297h182l164 -297h-178zM94 721l-2 -2q0 313 215 528t539 215q322 0 540 -215t218 -528q0 -314 -218 -529t-540 -215t-537 215t-215 531zM1397 719q0 230 -160 395q-158 162 -393 162q-236 0 -391 -162q-158 -166 -158 -395q0 -231 158 -397
q157 -160 393 -160t393 160q158 166 158 397z" />
    <glyph glyph-name="Oacute" unicode="&#xd3;" horiz-adv-x="1697" 
d="M942 1567h-180l166 297h182zM94 721l-2 -2q0 313 215 528t539 215q322 0 540 -215t218 -528q0 -314 -218 -529t-540 -215t-537 215t-215 531zM1397 719q0 230 -160 395q-158 162 -393 162q-236 0 -391 -162q-158 -166 -158 -395q0 -231 158 -397q157 -160 393 -160
t393 160q158 166 158 397z" />
    <glyph glyph-name="Ocircumflex" unicode="&#xd4;" horiz-adv-x="1697" 
d="M526 1567l238 297h168l239 -297h-167l-154 190l-158 -190h-166zM94 721l-2 -2q0 313 215 528t539 215q322 0 540 -215t218 -528q0 -314 -218 -529t-540 -215t-537 215t-215 531zM1397 719q0 230 -160 395q-158 162 -393 162q-236 0 -391 -162q-158 -166 -158 -395
q0 -231 158 -397q157 -160 393 -160t393 160q158 166 158 397z" />
    <glyph glyph-name="Otilde" unicode="&#xd5;" horiz-adv-x="1697" 
d="M94 721l-2 -2q0 313 215 528t539 215q322 0 540 -215t218 -528q0 -314 -218 -529t-540 -215t-537 215t-215 531zM1397 719q0 230 -160 395q-158 162 -393 162q-236 0 -391 -162q-158 -166 -158 -395q0 -231 158 -397q157 -160 393 -160t393 160q158 166 158 397z
M905 1749l-4 -2l43 -37q8 -8 25 -8q29 0 41 24q11 21 22 89h127q-9 -126 -55 -187t-135 -61q-46 0 -74 14q-34 15 -80 61q-22 29 -43 41q-18 11 -35 11q-36 0 -55 -29q-19 -34 -27 -92h-127q9 125 62 190q52 64 151 64q32 0 78 -17q37 -15 86 -61z" />
    <glyph glyph-name="Odieresis" unicode="&#xd6;" horiz-adv-x="1697" 
d="M94 721l-2 -2q0 313 215 528t539 215q322 0 540 -215t218 -528q0 -314 -218 -529t-540 -215t-537 215t-215 531zM1397 719q0 230 -160 395q-158 162 -393 162q-236 0 -391 -162q-158 -166 -158 -395q0 -231 158 -397q157 -160 393 -160t393 160q158 166 158 397z
M807 1698h-2q0 -47 -31 -78t-76 -31q-44 0 -75 31t-31 78t31 78q30 30 77 30q46 0 76 -30q31 -31 31 -78zM1104 1698l-4 -4q0 -45 -31 -76t-76 -31q-44 0 -75 31t-31 78t31 78q30 30 77 30q48 0 78 -30q31 -31 31 -76z" />
    <glyph glyph-name="multiply" unicode="&#xd7;" horiz-adv-x="1167" 
d="M266 293l-106 106l317 318l-313 315l106 107l316 -314l313 314l107 -107l-314 -313l318 -320l-109 -106l-317 317z" />
    <glyph glyph-name="Oslash" unicode="&#xd8;" horiz-adv-x="1703" 
d="M440 90l-127 -156h-211l213 259q-103 103 -159 239t-56 287q0 313 215 528t539 215q114 0 219 -30q114 -36 195 -89l129 158h211l-213 -258q103 -103 159 -239t56 -285q0 -315 -217 -529q-218 -215 -541 -215q-99 0 -215 29q-105 27 -197 86zM854 1278l-4 -4
q-236 0 -391 -162q-158 -166 -158 -395q0 -110 37 -203q39 -98 104 -172l705 852q-65 41 -139 61q-84 23 -154 23zM850 158l2 6q236 0 393 160q158 166 158 397q0 108 -37 201q-39 98 -104 172l-703 -854q64 -40 137 -62q67 -20 154 -20z" />
    <glyph glyph-name="Ugrave" unicode="&#xd9;" horiz-adv-x="1409" 
d="M616 1567l-167 297h182l164 -297h-179zM1036 1440l197 -6v-965q0 -217 -150 -358q-151 -142 -381 -142q-225 0 -376 142q-150 141 -150 360v965h197v-959q0 -140 92 -229q88 -88 235 -88q156 0 244 88q92 89 92 233v959z" />
    <glyph glyph-name="Uacute" unicode="&#xda;" horiz-adv-x="1409" 
d="M1036 1440l197 -6v-965q0 -217 -150 -358q-151 -142 -381 -142q-225 0 -376 142q-150 141 -150 360v965h197v-959q0 -140 92 -229q88 -88 235 -88q156 0 244 88q92 89 92 233v959zM797 1561h-181l166 297h183z" />
    <glyph glyph-name="Ucircumflex" unicode="&#xdb;" horiz-adv-x="1409" 
d="M381 1567l237 297h168l240 -297h-168l-153 190l-158 -190h-166zM1036 1440l197 -6v-965q0 -217 -150 -358q-151 -142 -381 -142q-225 0 -376 142q-150 141 -150 360v965h197v-959q0 -140 92 -229q88 -88 235 -88q156 0 244 88q92 89 92 233v959z" />
    <glyph glyph-name="Udieresis" unicode="&#xdc;" horiz-adv-x="1409" 
d="M1036 1440l197 -6v-965q0 -217 -150 -358q-151 -142 -381 -142q-225 0 -376 142q-150 141 -150 360v965h197v-959q0 -140 92 -229q88 -88 235 -88q156 0 244 88q92 89 92 233v959zM666 1694h-2q0 -47 -31 -78t-76 -31t-76 31q-30 30 -30 78t30 78t78 30q46 0 76 -30
q31 -31 31 -78zM963 1694l-5 -4q0 -46 -30 -76q-31 -31 -76 -31t-76 31t-31 78q0 46 31 77t78 31t78 -31t31 -75z" />
    <glyph glyph-name="Yacute" unicode="&#xdd;" horiz-adv-x="1294" 
d="M748 0h-197v524l-500 916h219l381 -715l387 715h205l-495 -903v-537zM754 1567h-181l166 297h183z" />
    <glyph glyph-name="Thorn" unicode="&#xde;" horiz-adv-x="1335" 
d="M190 1440l197 2v-258h318q242 0 395 -123t153 -328q0 -215 -153 -344t-395 -129h-318v-260h-197v1440zM694 1010h-309v-574h307q156 0 256 80q99 80 99 215q0 127 -99 203q-94 76 -254 76z" />
    <glyph glyph-name="germandbls" unicode="&#xdf;" horiz-adv-x="1267" 
d="M723 145l2 -2q126 0 201 78q73 76 73 213q0 120 -84 201q-83 80 -206 80h-168v145h118q115 0 191 70t76 178q0 110 -80 184t-199 74q-131 0 -211 -86t-80 -225v-1057h-188v1032q0 244 131 375q132 135 350 135q195 0 326 -110q133 -112 133 -287q0 -121 -51 -201
q-50 -85 -148 -133q129 -42 201 -147q74 -109 74 -242q0 -191 -125 -316q-126 -129 -303 -129q-66 0 -123 13q-43 10 -92 41v166q39 -27 77 -37q47 -13 105 -13z" />
    <glyph glyph-name="agrave" unicode="&#xe0;" horiz-adv-x="1124" 
d="M795 0l2 150q-58 -82 -150 -130q-86 -45 -198 -45q-154 0 -248 82q-99 83 -99 211q0 127 82 209q82 83 252 123l352 82v14q0 94 -63 148q-64 55 -172 55q-103 0 -166 -51q-68 -53 -80 -137h-180q15 151 135 250q119 98 293 98q196 0 307 -105t111 -282v-672h-178z
M485 133v-4q129 0 217 94q89 95 89 228v75l-306 -71q-94 -21 -145 -66q-49 -43 -49 -104q0 -72 51 -111q53 -41 143 -41zM463 1169l-168 297h182l164 -297h-178z" />
    <glyph glyph-name="aacute" unicode="&#xe1;" horiz-adv-x="1124" 
d="M795 0l2 150q-58 -82 -150 -130q-86 -45 -198 -45q-154 0 -248 82q-99 83 -99 211q0 127 82 209q82 83 252 123l352 82v14q0 94 -63 148q-64 55 -172 55q-103 0 -166 -51q-68 -53 -80 -137h-180q15 151 135 250q119 98 293 98q196 0 307 -105t111 -282v-672h-178z
M485 133v-4q129 0 217 94q89 95 89 228v75l-306 -71q-94 -21 -145 -66q-49 -43 -49 -104q0 -72 51 -111q53 -41 143 -41zM643 1169h-180l166 297h182z" />
    <glyph glyph-name="acircumflex" unicode="&#xe2;" horiz-adv-x="1124" 
d="M795 0l2 150q-58 -82 -150 -130q-86 -45 -198 -45q-154 0 -248 82q-99 83 -99 211q0 127 82 209q82 83 252 123l352 82v14q0 94 -63 148q-64 55 -172 55q-103 0 -166 -51q-68 -53 -80 -137h-180q15 151 135 250q119 98 293 98q196 0 307 -105t111 -282v-672h-178z
M485 133v-4q129 0 217 94q89 95 89 228v75l-306 -71q-94 -21 -145 -66q-49 -43 -49 -104q0 -72 51 -111q53 -41 143 -41zM229 1169l238 297h168l239 -297h-167l-154 191l-158 -191h-166z" />
    <glyph glyph-name="atilde" unicode="&#xe3;" horiz-adv-x="1124" 
d="M795 0l2 150q-58 -82 -150 -130q-86 -45 -198 -45q-154 0 -248 82q-99 83 -99 211q0 127 82 209q82 83 252 123l352 82v14q0 94 -63 148q-64 55 -172 55q-103 0 -166 -51q-68 -53 -80 -137h-180q15 151 135 250q119 98 293 98q196 0 307 -105t111 -282v-672h-178z
M485 133v-4q129 0 217 94q89 95 89 228v75l-306 -71q-94 -21 -145 -66q-49 -43 -49 -104q0 -72 51 -111q53 -41 143 -41zM610 1362l-4 -2l43 -37q8 -8 25 -8q29 0 41 24q12 21 22 88h127q-9 -125 -55 -186t-135 -61q-46 0 -74 14q-34 15 -80 61q-22 29 -43 41q-18 11 -35 11
q-36 0 -55 -29q-19 -34 -27 -92h-127q9 125 62 190q52 64 151 64q32 0 78 -17q37 -15 86 -61z" />
    <glyph glyph-name="adieresis" unicode="&#xe4;" horiz-adv-x="1124" 
d="M795 0l2 150q-58 -82 -150 -130q-86 -45 -198 -45q-154 0 -248 82q-99 83 -99 211q0 127 82 209q82 83 252 123l352 82v14q0 94 -63 148q-64 55 -172 55q-103 0 -166 -51q-68 -53 -80 -137h-180q15 151 135 250q119 98 293 98q196 0 307 -105t111 -282v-672h-178z
M485 133v-4q129 0 217 94q89 95 89 228v75l-306 -71q-94 -21 -145 -66q-49 -43 -49 -104q0 -72 51 -111q53 -41 143 -41zM510 1307h-2q0 -47 -31 -78t-76 -31q-44 0 -75 31t-31 78q0 46 31 77t77 31q45 0 76 -31t31 -77zM807 1307l-4 -4q0 -45 -31 -76t-76 -31q-44 0 -75 31
t-31 78q0 46 31 77t77 31q47 0 78 -31t31 -75z" />
    <glyph glyph-name="aring" unicode="&#xe5;" horiz-adv-x="1124" 
d="M795 0l2 150q-58 -82 -150 -130q-86 -45 -198 -45q-154 0 -248 82q-99 83 -99 211q0 127 82 209q82 83 252 123l352 82v14q0 94 -63 148q-64 55 -172 55q-103 0 -166 -51q-68 -53 -80 -137h-180q15 151 135 250q119 98 293 98q196 0 307 -105t111 -282v-672h-178z
M485 133v-4q129 0 217 94q89 95 89 228v75l-306 -71q-94 -21 -145 -66q-49 -43 -49 -104q0 -72 51 -111q53 -41 143 -41zM758 1354l-2 -4q0 -83 -62 -142q-57 -57 -147 -57q-89 0 -148 59t-59 142t61 141q65 59 148 59q90 0 147 -57q62 -59 62 -141zM457 1350l-2 -4
q0 -42 26 -68q27 -27 68 -27q38 0 67 29t29 68q0 40 -27 67q-29 29 -67 29q-41 0 -68 -27q-26 -26 -26 -67z" />
    <glyph glyph-name="ae" unicode="&#xe6;" horiz-adv-x="1947" 
d="M1651 326l176 -2q-53 -165 -189 -258q-133 -95 -317 -95q-145 0 -258 70q-116 70 -186 192q-46 -125 -156 -192q-112 -68 -254 -68q-168 0 -268 80q-99 79 -99 213q0 127 82 209q82 83 252 123l352 82v14q0 94 -63 148q-64 55 -172 55q-103 0 -166 -51q-68 -53 -80 -137
h-180q15 150 135 249t293 99q133 0 225 -56t137 -155q67 94 183 155q109 56 233 56q229 0 381 -152t152 -375v-65h-889q15 -144 115 -236t239 -92q108 0 193 49q84 49 129 140zM1321 895q-127 0 -221 -76q-96 -77 -125 -198l686 -3q-30 128 -123 203q-92 74 -217 74z
M479 129v-2q126 0 213 90q86 89 86 209v96l-305 -71q-94 -21 -145 -66q-49 -43 -49 -104q0 -72 53 -113q51 -39 147 -39z" />
    <glyph glyph-name="ccedilla" unicode="&#xe7;" horiz-adv-x="1239" 
d="M635 1059l-6 2q199 0 342 -119q144 -120 184 -307h-188q-34 114 -127 182q-92 68 -211 68q-153 0 -258 -105t-105 -260q0 -156 105 -264q103 -106 258 -106q120 0 215 71q94 70 129 185h186q-38 -176 -164 -293q-127 -118 -301 -136l-51 -86h6q103 0 160 -57
q61 -58 61 -149q0 -90 -67 -148q-71 -59 -166 -59q-97 0 -162 53q-61 52 -67 141h143q3 -35 29 -55q20 -20 59 -20q37 0 61 24q25 25 25 62q0 38 -25 63t-63 25q-30 0 -45 -9q-21 -9 -41 -32l-113 59l117 188q-206 27 -340 179q-131 149 -131 360q0 229 158 387
q156 156 393 156z" />
    <glyph glyph-name="egrave" unicode="&#xe8;" horiz-adv-x="1243" 
d="M627 137h-4q107 0 192 49q84 49 129 140h186q-53 -166 -188 -258q-133 -95 -317 -95q-230 0 -385 158q-154 157 -154 387q0 223 158 381t385 158q229 0 381 -152q151 -151 151 -375v-65h-889q15 -144 115 -236t240 -92zM623 897l-2 2q-132 0 -220 -76q-91 -79 -125 -202
h689q-30 127 -123 202q-92 74 -219 74zM528 1174l-168 296h183l164 -296h-179z" />
    <glyph glyph-name="eacute" unicode="&#xe9;" horiz-adv-x="1243" 
d="M717 1171h-180l165 297h183zM627 137h-4q107 0 192 49q84 49 129 140h186q-53 -166 -188 -258q-133 -95 -317 -95q-230 0 -385 158q-154 157 -154 387q0 223 158 381t385 158q229 0 381 -152q151 -151 151 -375v-65h-889q15 -144 115 -236t240 -92zM623 897l-2 2
q-132 0 -220 -76q-91 -79 -125 -202h689q-30 127 -123 202q-92 74 -219 74z" />
    <glyph glyph-name="ecircumflex" unicode="&#xea;" horiz-adv-x="1243" 
d="M303 1171l238 297h168l239 -297h-168l-153 191l-158 -191h-166zM627 137h-4q107 0 192 49q84 49 129 140h186q-53 -166 -188 -258q-133 -95 -317 -95q-230 0 -385 158q-154 157 -154 387q0 223 158 381t385 158q229 0 381 -152q151 -151 151 -375v-65h-889
q15 -144 115 -236t240 -92zM623 897l-2 2q-132 0 -220 -76q-91 -79 -125 -202h689q-30 127 -123 202q-92 74 -219 74z" />
    <glyph glyph-name="edieresis" unicode="&#xeb;" horiz-adv-x="1243" 
d="M584 1309h-2q0 -47 -31 -78t-76 -31t-76 31q-30 30 -30 78q0 47 30 77q31 31 78 31q45 0 76 -31t31 -77zM881 1309l-4 -4q0 -45 -31 -76t-76 -31t-76 31q-30 30 -30 78q0 47 30 77q31 31 78 31t78 -31t31 -75zM621 133h-5q108 0 193 49q84 49 129 140h186
q-54 -167 -188 -259q-131 -94 -318 -94q-230 0 -385 158q-153 156 -153 387q0 223 158 381t385 158q229 0 381 -152q151 -151 151 -375v-65h-889q15 -144 115 -236t240 -92zM616 893l-2 2q-131 0 -219 -76q-91 -79 -125 -203h688q-30 129 -122 203t-220 74z" />
    <glyph glyph-name="igrave" unicode="&#xec;" horiz-adv-x="528" 
d="M358 0h-188v1034h188v-1034zM174 1171l-168 297h182l164 -297h-178z" />
    <glyph glyph-name="iacute" unicode="&#xed;" horiz-adv-x="528" 
d="M354 1171h-180l166 297h182zM358 0h-188v1034h188v-1034z" />
    <glyph glyph-name="icircumflex" unicode="&#xee;" horiz-adv-x="528" 
d="M-59 1171l237 297h168l240 -297h-168l-154 191l-158 -191h-165zM358 0h-188v1034h188v-1034z" />
    <glyph glyph-name="idieresis" unicode="&#xef;" horiz-adv-x="528" 
d="M223 1309h-2q0 -47 -31 -78t-75 -31q-45 0 -76 31t-31 78q0 46 31 77t78 31q45 0 76 -31q30 -30 30 -77zM520 1309l-4 -4q0 -45 -31 -76t-75 -31q-45 0 -76 31t-31 78q0 46 31 77t78 31q46 0 77 -31t31 -75zM352 -4h-188v1034h188v-1034z" />
    <glyph glyph-name="eth" unicode="&#xf0;" horiz-adv-x="1290" 
d="M84 514l-2 -2q0 218 151 369t369 151q116 0 209 -43q95 -44 160 -127q-22 105 -78 209q-54 103 -143 205l-226 -100v110l150 70q-42 39 -92 80q-36 30 -109 80h203l72 -50q13 -9 35 -28t30 -25l211 103v-109l-137 -68q143 -155 221 -358q78 -210 78 -418
q0 -247 -160 -418q-159 -170 -389 -170q-227 0 -393 158q-160 157 -160 381zM999 512h-2q0 152 -104 256t-258 104q-156 0 -260 -104q-105 -105 -105 -256q0 -153 105 -258q104 -104 260 -104t260 104t104 258z" />
    <glyph glyph-name="ntilde" unicode="&#xf1;" horiz-adv-x="1226" 
d="M354 0l-186 -6v1034h180v-145q57 84 141 127q85 43 189 43q181 0 289 -111q108 -114 108 -293v-653h-188v610q0 131 -68 205t-190 74q-121 0 -199 -84q-76 -82 -76 -209v-592zM686 1358l-4 -2l43 -37q8 -8 25 -8q29 0 41 24q12 21 22 88h127q-9 -125 -55 -186t-135 -61
q-46 0 -74 14q-34 15 -80 61q-22 29 -43 41q-18 11 -35 11q-36 0 -55 -29q-19 -34 -27 -92h-127q9 125 62 190q52 64 151 64q32 0 78 -17q37 -15 86 -61z" />
    <glyph glyph-name="ograve" unicode="&#xf2;" horiz-adv-x="1269" 
d="M84 518v-6q0 229 158 387q156 156 393 156t393 -156q158 -158 158 -383q0 -229 -158 -387q-156 -156 -393 -156q-235 0 -393 158t-158 387zM999 512h-4q0 153 -104 260t-258 107t-258 -107q-105 -108 -105 -260q0 -156 105 -264q104 -107 260 -107t260 107t104 264z
M543 1165l-168 297h182l164 -297h-178z" />
    <glyph glyph-name="oacute" unicode="&#xf3;" horiz-adv-x="1269" 
d="M727 1171h-180l166 297h182zM84 518v-6q0 229 158 387q156 156 393 156t393 -156q158 -158 158 -383q0 -229 -158 -387q-156 -156 -393 -156q-235 0 -393 158t-158 387zM999 512h-4q0 153 -104 260t-258 107t-258 -107q-105 -108 -105 -260q0 -156 105 -264
q104 -107 260 -107t260 107t104 264z" />
    <glyph glyph-name="ocircumflex" unicode="&#xf4;" horiz-adv-x="1269" 
d="M313 1171l238 297h168l239 -297h-167l-154 191l-158 -191h-166zM84 518v-6q0 229 158 387q156 156 393 156t393 -156q158 -158 158 -383q0 -229 -158 -387q-156 -156 -393 -156q-235 0 -393 158t-158 387zM999 512h-4q0 153 -104 260t-258 107t-258 -107
q-105 -108 -105 -260q0 -156 105 -264q104 -107 260 -107t260 107t104 264z" />
    <glyph glyph-name="otilde" unicode="&#xf5;" horiz-adv-x="1269" 
d="M84 518v-6q0 229 158 387q156 156 393 156t393 -156q158 -158 158 -383q0 -229 -158 -387q-156 -156 -393 -156q-235 0 -393 158t-158 387zM999 512h-4q0 153 -104 260t-258 107t-258 -107q-105 -108 -105 -260q0 -156 105 -264q104 -107 260 -107t260 107t104 264z
M690 1358l-4 -2l43 -37q8 -8 25 -8q29 0 41 24q12 21 22 88h127q-9 -125 -55 -186t-135 -61q-46 0 -74 14q-34 15 -80 61q-22 29 -43 41q-18 11 -35 11q-36 0 -55 -29q-19 -34 -27 -92h-127q9 125 62 190q52 64 151 64q32 0 78 -17q37 -15 86 -61z" />
    <glyph glyph-name="odieresis" unicode="&#xf6;" horiz-adv-x="1269" 
d="M594 1309h-2q0 -47 -31 -78t-76 -31q-44 0 -75 31t-31 78q0 46 31 77t77 31q45 0 76 -31t31 -77zM891 1309l-4 -4q0 -45 -31 -76t-76 -31q-44 0 -75 31t-31 78q0 46 31 77t77 31q47 0 78 -31t31 -75zM78 514v-6q0 229 158 387q156 156 393 156t393 -156
q158 -158 158 -383q0 -229 -158 -387q-156 -156 -393 -156q-235 0 -393 158t-158 387zM993 508h-4q0 153 -104 260q-103 106 -258 106t-258 -106q-105 -108 -105 -260q0 -156 105 -264q104 -107 260 -107t260 107t104 264z" />
    <glyph glyph-name="divide" unicode="&#xf7;" horiz-adv-x="1167" 
d="M713 1102h-2q0 -51 -37 -88t-92 -37q-53 0 -90 37t-37 88q0 55 37 92t92 37t92 -37t37 -92zM121 641v152h921v-152h-921zM711 330h-2q0 -51 -37 -88t-92 -37q-54 0 -91 37q-36 36 -36 88q0 56 36 92q37 37 93 37q55 0 92 -37t37 -92z" />
    <glyph glyph-name="oslash" unicode="&#xf8;" horiz-adv-x="1282" 
d="M362 45l-90 -117h-182l156 197q-77 77 -117 178q-41 106 -41 211q0 229 158 387q156 156 393 156q73 0 147 -19q67 -17 134 -53l90 113h182l-158 -201q77 -74 117 -172q41 -103 41 -209q0 -229 -158 -387q-156 -156 -393 -156q-73 0 -147 19q-68 16 -132 53zM639 879h-6
q-154 0 -258 -107q-105 -108 -105 -260q0 -68 25 -135q24 -64 67 -113l449 570q-36 20 -82 32q-47 13 -90 13zM633 143l-2 -2q156 0 260 107t104 264q0 59 -22 127q-20 60 -62 115l-448 -570q38 -21 80 -30q57 -11 90 -11z" />
    <glyph glyph-name="ugrave" unicode="&#xf9;" horiz-adv-x="1208" 
d="M588 147v5q117 0 192 84q74 83 74 208v592h188v-1034h-180v148q-53 -84 -135 -130q-80 -45 -182 -45q-175 0 -283 111q-106 106 -106 293v653h188v-610q0 -123 66 -201q65 -74 178 -74zM508 1176l-168 297h182l164 -297h-178z" />
    <glyph glyph-name="uacute" unicode="&#xfa;" horiz-adv-x="1208" 
d="M688 1171h-180l166 297h182zM588 147v5q117 0 192 84q74 83 74 208v592h188v-1034h-180v148q-53 -84 -135 -130q-80 -45 -182 -45q-175 0 -283 111q-106 106 -106 293v653h188v-610q0 -123 66 -201q65 -74 178 -74z" />
    <glyph glyph-name="ucircumflex" unicode="&#xfb;" horiz-adv-x="1208" 
d="M274 1171l238 297h168l240 -297h-168l-154 191l-158 -191h-166zM588 147v5q117 0 192 84q74 83 74 208v592h188v-1034h-180v148q-53 -84 -135 -130q-80 -45 -182 -45q-175 0 -283 111q-106 106 -106 293v653h188v-610q0 -123 66 -201q65 -74 178 -74z" />
    <glyph glyph-name="udieresis" unicode="&#xfc;" horiz-adv-x="1208" 
d="M557 1309h-2q0 -47 -31 -78t-75 -31q-45 0 -76 31t-31 78q0 46 31 77t78 31q44 0 75 -31t31 -77zM854 1309l-4 -4q0 -45 -31 -76t-76 -31q-44 0 -75 31t-31 78q0 46 31 77t77 31q47 0 78 -31t31 -75zM582 143v4q117 0 192 84q74 83 74 209v592h188v-1034h-180v147
q-52 -83 -135 -129q-80 -45 -182 -45q-175 0 -283 111q-106 106 -106 293v653h188v-610q0 -124 65 -201q65 -74 179 -74z" />
    <glyph glyph-name="yacute" unicode="&#xfd;" horiz-adv-x="1085" 
d="M848 1034h194l-559 -1468h-188l156 420l-410 1048h199l305 -813zM635 1171h-180l166 297h182z" />
    <glyph glyph-name="thorn" unicode="&#xfe;" 
d="M750 1059l6 2q224 0 372 -154t148 -385q0 -233 -150 -389t-376 -156q-119 0 -222 50q-101 49 -172 141v-600h-188v1952h188v-652q72 93 172 142q101 49 222 49zM1081 520v-2q0 157 -104 264t-260 107t-260 -107q-105 -108 -105 -264t105 -264q104 -107 260 -107
q154 0 260 109q104 107 104 264z" />
    <glyph glyph-name="ydieresis" unicode="&#xff;" horiz-adv-x="1085" 
d="M848 1034h194l-559 -1468h-188l156 420l-410 1048h199l305 -813zM502 1309h-2q0 -47 -31 -78t-76 -31t-76 31q-30 30 -30 78q0 47 30 77q31 31 78 31q45 0 76 -31t31 -77zM799 1309l-4 -4q0 -45 -31 -76t-76 -31t-76 31q-30 30 -30 78q0 47 30 77q31 31 78 31t78 -31
t31 -75z" />
    <glyph glyph-name="Amacron" unicode="&#x100;" horiz-adv-x="1384" 
d="M588 1440h209l549 -1440h-211l-129 352h-639l-129 -352h-201zM944 518l-258 699l-258 -699h516zM969 1622h-551v129h551v-129z" />
    <glyph glyph-name="amacron" unicode="&#x101;" horiz-adv-x="1124" 
d="M795 0l2 150q-58 -82 -150 -130q-86 -45 -198 -45q-154 0 -248 82q-99 83 -99 211q0 127 82 209q82 83 252 123l352 82v14q0 94 -63 148q-64 55 -172 55q-103 0 -166 -51q-68 -53 -80 -137h-180q15 151 135 250q119 98 293 98q196 0 307 -105t111 -282v-672h-178z
M485 133v-4q129 0 217 94q89 95 89 228v75l-306 -71q-94 -21 -145 -66q-49 -43 -49 -104q0 -72 51 -111q53 -41 143 -41zM827 1229h-551v129h551v-129z" />
    <glyph glyph-name="Abreve" unicode="&#x102;" horiz-adv-x="1384" 
d="M588 1440h209l549 -1440h-211l-129 352h-639l-129 -352h-201zM944 518l-258 699l-258 -699h516zM692 1548l4 -2q-131 0 -215 84q-82 82 -82 209h140q0 -76 41 -123t114 -47q74 0 115 47t41 123h139q0 -127 -82 -209t-215 -82z" />
    <glyph glyph-name="abreve" unicode="&#x103;" horiz-adv-x="1124" 
d="M795 0l2 150q-58 -82 -150 -130q-86 -45 -198 -45q-154 0 -248 82q-99 83 -99 211q0 127 82 209q82 83 252 123l352 82v14q0 94 -63 148q-64 55 -172 55q-103 0 -166 -51q-68 -53 -80 -137h-180q15 151 135 250q119 98 293 98q196 0 307 -105t111 -282v-672h-178z
M485 133v-4q129 0 217 94q89 95 89 228v75l-306 -71q-94 -21 -145 -66q-49 -43 -49 -104q0 -72 51 -111q53 -41 143 -41zM553 1153l4 -2q-131 0 -215 84q-82 82 -82 209h139q0 -76 41 -123t115 -47t115 47t41 123h139q0 -127 -82 -209t-215 -82z" />
    <glyph glyph-name="Aogonek" unicode="&#x104;" horiz-adv-x="1384" 
d="M588 1440l203 -2l548 -1440h-55q-104 -125 -139 -184q-37 -61 -37 -105q0 -42 25 -67t67 -25q26 0 53 6q22 5 50 23v-131q-38 -23 -68 -31q-42 -10 -72 -10q-88 0 -149 55q-62 56 -62 139q0 73 33 135q33 65 150 197l-129 352h-639l-129 -352h-201zM938 516l-258 698
l-258 -698h516z" />
    <glyph glyph-name="aogonek" unicode="&#x105;" horiz-adv-x="1124" 
d="M795 2l-7 148q-58 -82 -149 -130q-86 -45 -199 -45q-153 0 -247 82q-99 83 -99 211q0 127 82 209q82 83 252 123l352 82v14q0 94 -63 148q-64 55 -172 55q-103 0 -166 -51q-68 -53 -80 -137h-180q15 151 135 250q119 98 293 98q196 0 307 -105t111 -282v-672h-25
q-104 -125 -139 -184q-37 -61 -37 -105q0 -43 24 -67q25 -25 68 -25q26 0 53 6q20 5 49 23v-131q-39 -24 -67 -31q-42 -10 -72 -10q-88 0 -149 55q-62 56 -62 139q0 70 35 135q40 70 152 197zM477 133v-4q129 0 217 94t88 228v75l-305 -71q-94 -21 -145 -66
q-49 -43 -49 -104q0 -72 51 -111q53 -41 143 -41z" />
    <glyph glyph-name="Cacute" unicode="&#x106;" horiz-adv-x="1642" 
d="M1362 565l203 6q-52 -259 -252 -426q-198 -165 -473 -165q-316 0 -531 215t-215 528t215 528t531 215q269 0 467 -155q199 -156 258 -412h-211q-55 171 -197 277q-140 104 -321 104q-229 0 -381 -162q-154 -165 -154 -395q0 -234 154 -399q152 -162 381 -162
q190 0 333 110q143 107 193 293zM928 1573h-180l165 297h183z" />
    <glyph glyph-name="cacute" unicode="&#x107;" horiz-adv-x="1239" 
d="M725 1171h-180l166 297h182zM635 1059q199 0 342 -119q144 -120 184 -307h-188q-34 114 -127 182q-92 68 -211 68q-153 0 -258 -105t-105 -260q0 -156 105 -264q104 -107 258 -107q118 0 215 72q95 71 129 184h186q-40 -191 -186 -313q-143 -119 -344 -119
q-235 0 -393 158t-158 387t158 387q156 156 393 156z" />
    <glyph glyph-name="Ccircumflex" unicode="&#x108;" horiz-adv-x="1642" 
d="M1362 565l203 6q-52 -259 -252 -426q-198 -165 -473 -165q-316 0 -531 215t-215 528t215 528t531 215q269 0 467 -155q199 -156 258 -412h-211q-55 171 -197 277q-140 104 -321 104q-229 0 -381 -162q-154 -165 -154 -395q0 -234 154 -399q152 -162 381 -162
q190 0 333 110q143 107 193 293zM512 1573l238 297h168l239 -297h-168l-153 190l-158 -190h-166z" />
    <glyph glyph-name="ccircumflex" unicode="&#x109;" horiz-adv-x="1239" 
d="M311 1171l238 297h168l239 -297h-168l-153 191l-158 -191h-166zM635 1059q199 0 342 -119q144 -120 184 -307h-188q-34 114 -127 182q-92 68 -211 68q-153 0 -258 -105t-105 -260q0 -156 105 -264q104 -107 258 -107q118 0 215 72q95 71 129 184h186q-40 -191 -186 -313
q-143 -119 -344 -119q-235 0 -393 158t-158 387t158 387q156 156 393 156z" />
    <glyph glyph-name="Cdotaccent" unicode="&#x10a;" horiz-adv-x="1642" 
d="M958 1708q0 -51 -36 -84q-41 -35 -86 -35q-49 0 -84 35t-35 84q0 45 35 86q34 37 84 37q49 0 86 -37q36 -36 36 -86zM1362 565l203 6q-52 -259 -252 -426q-198 -165 -473 -165q-316 0 -531 215t-215 528t215 528t531 215q269 0 467 -155q199 -156 258 -412h-211
q-55 171 -197 277q-140 104 -321 104q-229 0 -381 -162q-154 -165 -154 -395q0 -234 154 -399q152 -162 381 -162q190 0 333 110q143 107 193 293z" />
    <glyph glyph-name="cdotaccent" unicode="&#x10b;" horiz-adv-x="1239" 
d="M635 1059q199 0 342 -119q144 -120 184 -307h-188q-34 114 -127 182q-92 68 -211 68q-153 0 -258 -105t-105 -260q0 -156 105 -264q104 -107 258 -107q118 0 215 72q95 71 129 184h186q-40 -191 -186 -313q-143 -119 -344 -119q-235 0 -393 158t-158 387t158 387
q156 156 393 156zM754 1317q0 -50 -37 -84q-41 -35 -86 -35q-49 0 -84 35t-35 84q0 45 35 86q34 37 84 37q49 0 86 -37t37 -86z" />
    <glyph glyph-name="Ccaron" unicode="&#x10c;" horiz-adv-x="1642" 
d="M1362 565l203 6q-52 -259 -252 -426q-198 -165 -473 -165q-316 0 -531 215t-215 528t215 528t531 215q269 0 467 -155q199 -156 258 -412h-211q-55 171 -197 277q-140 104 -321 104q-229 0 -381 -162q-154 -165 -154 -395q0 -234 154 -399q152 -162 381 -162
q190 0 333 110q143 107 193 293zM510 1870h166l158 -191l153 191h168l-240 -297h-167z" />
    <glyph glyph-name="ccaron" unicode="&#x10d;" horiz-adv-x="1239" 
d="M309 1468h166l158 -190l153 190h168l-239 -297h-168zM635 1059q199 0 342 -119q144 -120 184 -307h-188q-34 114 -127 182q-92 68 -211 68q-153 0 -258 -105t-105 -260q0 -156 105 -264q104 -107 258 -107q118 0 215 72q95 71 129 184h186q-40 -191 -186 -313
q-143 -119 -344 -119q-235 0 -393 158t-158 387t158 387q156 156 393 156z" />
    <glyph glyph-name="Dcaron" unicode="&#x10e;" horiz-adv-x="1562" 
d="M692 0l-504 -2v1440h502q338 0 557 -195q215 -194 215 -520q0 -329 -215 -526t-555 -197zM385 1251v-1065h299q258 0 416 146q157 145 157 393q0 243 -157 385q-156 141 -416 141h-299zM406 1864h165l158 -191l154 191h168l-240 -297h-168z" />
    <glyph glyph-name="dcaron" unicode="&#x10f;" horiz-adv-x="1404" 
d="M1581 1331l-94 -252h-121l90 230q-39 9 -65 41q-25 31 -25 71q0 51 35 86t86 35t86 -35t35 -84q0 -16 -6 -34zM606 -27l-8 2q-223 0 -371 154q-147 153 -147 385q0 234 149 389q150 156 377 156q120 0 221 -49q100 -49 172 -142v650h189v-1518h-178v182
q-68 -95 -174 -153q-106 -56 -230 -56zM272 516q0 -156 105 -264q104 -107 260 -107t260 107t104 264t-104 264t-260 107t-260 -107q-105 -108 -105 -264z" />
    <glyph glyph-name="Dcroat" unicode="&#x110;" horiz-adv-x="1581" 
d="M711 0l-504 -2v637h-162v164h162v639h502q338 0 557 -195q215 -194 215 -520q0 -329 -215 -526t-555 -197zM403 635v-449h299q258 0 416 146t158 393q0 242 -158 385q-156 141 -416 141h-299v-452h402v-164h-402z" />
    <glyph glyph-name="dcroat" unicode="&#x111;" 
d="M606 -25l-8 2q-223 0 -371 154q-147 153 -147 385q0 234 149 389q150 156 377 156q120 0 221 -49q100 -49 172 -142v330h-397v154h397v166h189v-166h145v-154h-145v-1198h-178v182q-68 -95 -174 -153q-106 -56 -230 -56zM272 518q0 -156 105 -264q104 -107 260 -107
t260 107t104 264t-104 264t-260 107t-260 -107q-105 -108 -105 -264z" />
    <glyph glyph-name="Emacron" unicode="&#x112;" horiz-adv-x="1191" 
d="M1079 0h-889v1440h879v-180h-682v-441h633v-172h-633v-467h692v-180zM909 1622h-551v129h551v-129z" />
    <glyph glyph-name="emacron" unicode="&#x113;" horiz-adv-x="1243" 
d="M627 137h-4q107 0 192 49q84 49 129 140h186q-53 -166 -188 -258q-133 -95 -317 -95q-230 0 -385 158q-154 157 -154 387q0 223 158 381t385 158q229 0 381 -152q151 -151 151 -375v-65h-889q15 -144 115 -236t240 -92zM623 897l-2 2q-132 0 -220 -76q-91 -79 -125 -202
h689q-30 127 -123 202q-92 74 -219 74zM895 1233h-551v129h551v-129z" />
    <glyph glyph-name="Ebreve" unicode="&#x114;" horiz-adv-x="1191" 
d="M1079 0h-889v1440h879v-180h-682v-441h633v-172h-633v-467h692v-180zM631 1548l4 -2q-131 0 -215 84q-82 82 -82 209h139q0 -76 41 -123t115 -47t115 47q40 46 40 123h140q0 -127 -82 -209t-215 -82z" />
    <glyph glyph-name="ebreve" unicode="&#x115;" horiz-adv-x="1243" 
d="M627 137h-4q107 0 192 49q84 49 129 140h186q-53 -166 -188 -258q-133 -95 -317 -95q-230 0 -385 158q-154 157 -154 387q0 223 158 381t385 158q229 0 381 -152q151 -151 151 -375v-65h-889q15 -144 115 -236t240 -92zM623 897l-2 2q-132 0 -220 -76q-91 -79 -125 -202
h689q-30 127 -123 202q-92 74 -219 74zM618 1157l5 -2q-131 0 -215 84q-82 82 -82 209h139q0 -76 41 -123t115 -47q73 0 114 47t41 123h139q0 -128 -81 -209q-82 -82 -216 -82z" />
    <glyph glyph-name="Edotaccent" unicode="&#x116;" horiz-adv-x="1191" 
d="M754 1708q0 -50 -37 -84q-41 -35 -86 -35q-49 0 -84 35t-35 84q0 45 35 86q34 37 84 37q49 0 86 -37t37 -86zM1079 0h-889v1440h879v-180h-682v-441h633v-172h-633v-467h692v-180z" />
    <glyph glyph-name="edotaccent" unicode="&#x117;" horiz-adv-x="1243" 
d="M627 137h-4q107 0 192 49q84 49 129 140h186q-53 -166 -188 -258q-133 -95 -317 -95q-230 0 -385 158q-154 157 -154 387q0 223 158 381t385 158q229 0 381 -152q151 -151 151 -375v-65h-889q15 -144 115 -236t240 -92zM623 897l-2 2q-132 0 -220 -76q-91 -79 -125 -202
h689q-30 127 -123 202q-92 74 -219 74zM739 1319q0 -50 -37 -84q-41 -35 -86 -35q-49 0 -84 35q-34 34 -34 84q0 46 34 86q34 37 84 37q49 0 86 -37t37 -86z" />
    <glyph glyph-name="Eogonek" unicode="&#x118;" horiz-adv-x="1191" 
d="M864 0l-680 -2v1440h879v-181h-682v-440h633v-172h-633v-467h692v-180h-59q-108 -129 -140 -184q-36 -59 -36 -105q0 -43 24 -67q25 -25 68 -25q26 0 53 6q20 5 49 23v-131q-39 -24 -67 -31q-42 -10 -72 -10q-89 0 -150 55t-61 139q0 73 33 135q34 67 149 197z" />
    <glyph glyph-name="eogonek" unicode="&#x119;" horiz-adv-x="1243" 
d="M733 -14l-4 -6l-55 -7q-18 -2 -56 -2q-230 0 -385 158q-153 156 -153 387q0 223 158 381t385 158q229 0 381 -152q151 -151 151 -375v-65h-889q15 -144 115 -236t240 -92q107 0 192 49q84 49 129 140h186q-14 -43 -43 -93q-26 -45 -73 -98q-146 -165 -203 -258
q-59 -95 -59 -164q0 -43 24 -67q25 -25 68 -25q28 0 55 6q20 5 49 23v-131q-39 -24 -67 -31q-42 -10 -74 -10q-89 0 -150 55t-61 139q0 71 31 144q25 62 108 172zM623 891l-2 2q-132 0 -220 -76q-91 -79 -125 -203h687q-30 128 -123 203q-92 74 -217 74z" />
    <glyph glyph-name="Ecaron" unicode="&#x11a;" horiz-adv-x="1191" 
d="M1079 0h-889v1440h879v-180h-682v-441h633v-172h-633v-467h692v-180zM305 1864h166l158 -191l153 191h168l-239 -297h-168z" />
    <glyph glyph-name="ecaron" unicode="&#x11b;" horiz-adv-x="1243" 
d="M301 1468h166l158 -190l153 190h168l-239 -297h-168zM627 137h-4q107 0 192 49q84 49 129 140h186q-53 -166 -188 -258q-133 -95 -317 -95q-230 0 -385 158q-154 157 -154 387q0 223 158 381t385 158q229 0 381 -152q151 -151 151 -375v-65h-889q15 -144 115 -236
t240 -92zM623 897l-2 2q-132 0 -220 -76q-91 -79 -125 -202h689q-30 127 -123 202q-92 74 -219 74z" />
    <glyph glyph-name="Gcircumflex" unicode="&#x11c;" horiz-adv-x="1658" 
d="M510 1567l238 297h167l240 -297h-168l-153 190l-158 -190h-166zM1530 723l-6 -715h-164v256q-86 -135 -227 -209q-140 -73 -324 -73q-306 0 -512 215q-205 211 -205 530q0 307 213 526q212 215 526 215q244 0 439 -139q191 -141 260 -366h-215q-62 147 -191 233
q-130 86 -290 86q-229 0 -381 -162q-154 -165 -154 -395q0 -241 154 -406q151 -161 385 -161q210 0 344 104q135 105 170 299h-527v162h705z" />
    <glyph glyph-name="gcircumflex" unicode="&#x11d;" horiz-adv-x="1290" 
d="M283 1171l237 297h168l240 -297h-168l-154 191l-157 -191h-166zM96 -49l187 -4q3 -112 94 -185q87 -69 235 -69q144 0 234 84t90 219v223q-62 -80 -156 -129q-86 -45 -202 -45q-210 0 -349 145t-139 361t141 360q143 146 353 146q111 0 207 -47q90 -44 157 -136v158h178
v-1018q0 -214 -141 -346q-137 -131 -375 -131q-217 0 -364 117t-150 297zM283 549l-4 4q0 -148 94 -242q94 -98 235 -98q144 0 238 98q96 104 96 240q0 146 -94 240q-94 98 -236 98q-141 0 -235 -98q-94 -94 -94 -242z" />
    <glyph glyph-name="Gbreve" unicode="&#x11e;" horiz-adv-x="1658" 
d="M1530 723l-6 -715h-164v256q-86 -135 -227 -209q-140 -73 -324 -73q-306 0 -512 215q-205 211 -205 530q0 307 213 526q212 215 526 215q244 0 439 -139q191 -141 260 -366h-215q-62 147 -191 233q-130 86 -290 86q-229 0 -381 -162q-154 -165 -154 -395q0 -241 154 -406
q151 -161 385 -161q210 0 344 104q135 105 170 299h-527v162h705zM827 1556l4 -2q-131 0 -215 84q-81 81 -81 209h139q0 -76 41 -123t114 -47q74 0 115 47t41 123h139q0 -127 -82 -209t-215 -82z" />
    <glyph glyph-name="gbreve" unicode="&#x11f;" horiz-adv-x="1290" 
d="M96 -49l187 -4q3 -112 94 -185q87 -69 235 -69q144 0 234 84t90 219v223q-62 -80 -156 -129q-86 -45 -202 -45q-210 0 -349 145t-139 361t141 360q143 146 353 146q111 0 207 -47q90 -44 157 -136v158h178v-1018q0 -214 -141 -346q-137 -131 -375 -131q-217 0 -364 117
t-150 297zM283 549l-4 4q0 -148 94 -242q94 -98 235 -98q144 0 238 98q96 104 96 240q0 146 -94 240q-94 98 -236 98q-141 0 -235 -98q-94 -94 -94 -242zM602 1155l4 -2q-131 0 -215 84q-82 82 -82 209h140q0 -77 40 -123q41 -47 115 -47t115 47t41 123h139q0 -127 -82 -209
t-215 -82z" />
    <glyph glyph-name="Gdotaccent" unicode="&#x120;" horiz-adv-x="1658" 
d="M956 1708q0 -51 -36 -84q-41 -35 -86 -35q-49 0 -84 35t-35 84q0 45 35 86q34 37 84 37q49 0 86 -37q36 -36 36 -86zM1530 723l-6 -715h-164v256q-86 -135 -227 -209q-140 -73 -324 -73q-306 0 -512 215q-205 211 -205 530q0 307 213 526q212 215 526 215q244 0 439 -139
q191 -141 260 -366h-215q-62 147 -191 233q-130 86 -290 86q-229 0 -381 -162q-154 -165 -154 -395q0 -241 154 -406q151 -161 385 -161q210 0 344 104q135 105 170 299h-527v162h705z" />
    <glyph glyph-name="gdotaccent" unicode="&#x121;" horiz-adv-x="1290" 
d="M96 -49l187 -4q3 -112 94 -185q87 -69 235 -69q144 0 234 84t90 219v223q-62 -80 -156 -129q-86 -45 -202 -45q-210 0 -349 145t-139 361t141 360q143 146 353 146q111 0 207 -47q90 -44 157 -136v158h178v-1018q0 -214 -141 -346q-137 -131 -375 -131q-217 0 -364 117
t-150 297zM283 549l-4 4q0 -148 94 -242q94 -98 235 -98q144 0 238 98q96 104 96 240q0 146 -94 240q-94 98 -236 98q-141 0 -235 -98q-94 -94 -94 -242zM721 1317q0 -50 -37 -84q-41 -35 -86 -35q-49 0 -84 35t-35 84q0 45 35 86q34 37 84 37q49 0 86 -37t37 -86z" />
    <glyph glyph-name="uni0122" unicode="&#x122;" horiz-adv-x="1658" 
d="M918 -295l-93 -233h-106l78 180q-40 9 -64 39t-24 67q0 48 30 78q31 31 78 31q49 0 80 -31t31 -78q0 -18 -2 -24q-7 -27 -8 -29zM1534 721l-6 -715h-164v256q-86 -135 -227 -209q-140 -73 -324 -73q-306 0 -512 215q-205 211 -205 530q0 307 213 526q212 215 527 215
q243 0 438 -139q191 -141 260 -366h-215q-62 147 -191 233q-130 86 -290 86q-229 0 -381 -162q-154 -165 -154 -395q0 -241 154 -406q151 -161 385 -161q210 0 344 104q135 105 170 299h-527v162h705z" />
    <glyph glyph-name="uni0123" unicode="&#x123;" horiz-adv-x="1290" 
d="M504 1362l92 231h111l-80 -182q37 -8 59 -37q23 -30 23 -65q0 -47 -31 -78t-78 -31q-49 0 -80 31t-31 78q0 2 1 5t2 8t2 9q5 18 10 31zM90 -49l186 -4q3 -112 95 -185q87 -69 235 -69q144 0 234 84t90 219v223q-62 -80 -156 -129q-86 -45 -203 -45q-209 0 -348 145
t-139 361t141 360q143 146 353 146q110 0 206 -47q92 -45 158 -136v158h178v-1018q0 -214 -141 -346q-137 -131 -375 -131q-217 0 -364 117t-150 297zM276 549l-4 4q0 -147 95 -242q94 -98 235 -98q144 0 238 98q96 104 96 240q0 146 -94 240q-94 98 -236 98
q-141 0 -235 -98q-95 -95 -95 -242z" />
    <glyph glyph-name="Hcircumflex" unicode="&#x124;" horiz-adv-x="1456" 
d="M387 0h-197v1440h197v-609h684v609h195v-1440h-195v645h-684v-645zM408 1567l237 297h168l240 -297h-168l-154 190l-158 -190h-165z" />
    <glyph glyph-name="hcircumflex" unicode="&#x125;" horiz-adv-x="1226" 
d="M-61 1655l237 297h168l240 -297h-168l-154 190l-158 -190h-165zM354 0l-188 -2v1518h188v-619q54 75 140 117q87 41 182 41q181 0 289 -111q108 -114 108 -293v-653h-188v625q0 119 -68 190q-69 72 -188 72q-121 0 -199 -84q-76 -82 -76 -209v-592z" />
    <glyph glyph-name="Hbar" unicode="&#x126;" horiz-adv-x="1499" 
d="M408 0h-197v1032h-158v158h158v250h197v-250h684v250h194v-250h160v-158h-160v-1032h-194v645h-684v-645zM408 1032v-201h684v201h-684z" />
    <glyph glyph-name="hbar" unicode="&#x127;" horiz-adv-x="1226" 
d="M354 0l-188 -2v1198h-143v154h143v166h188v-166h400v-154h-400v-299q54 75 140 117q87 41 182 41q181 0 289 -111q108 -114 108 -293v-653h-188v625q0 119 -68 190q-69 72 -188 72q-121 0 -199 -84q-76 -82 -76 -209v-592z" />
    <glyph glyph-name="Itilde" unicode="&#x128;" horiz-adv-x="577" 
d="M387 0h-197v1440h197v-1440zM348 1751l-4 -2l43 -37q8 -8 25 -8q28 0 41 25q12 21 22 88h127q-9 -126 -55 -187t-135 -61q-46 0 -74 14q-32 14 -80 62q-22 29 -43 41q-17 10 -35 10q-36 0 -55 -29q-19 -34 -27 -92h-127q9 125 62 190q52 64 151 64q32 0 78 -17
q37 -15 86 -61z" />
    <glyph glyph-name="itilde" unicode="&#x129;" horiz-adv-x="528" 
d="M358 0h-188v1034h188v-1034zM322 1364l-5 -2l43 -37q8 -8 25 -8q29 0 41 24q13 23 23 89h126q-9 -126 -55 -187t-135 -61q-46 0 -74 14q-34 15 -80 61q-22 29 -43 41q-18 11 -34 11q-37 0 -56 -29q-18 -32 -26 -92h-127q9 126 61 190t152 64q32 0 78 -17q37 -15 86 -61z
" />
    <glyph glyph-name="Imacron" unicode="&#x12a;" horiz-adv-x="577" 
d="M387 0h-197v1440h197v-1440zM567 1622h-551v129h551v-129z" />
    <glyph glyph-name="imacron" unicode="&#x12b;" horiz-adv-x="528" 
d="M358 0h-188v1034h188v-1034zM541 1231h-551v129h551v-129z" />
    <glyph glyph-name="Iogonek" unicode="&#x12e;" horiz-adv-x="577" 
d="M8 -330l-6 -2q0 73 33 135q34 67 149 197v1440h197v-1440h-41q-104 -125 -139 -184q-37 -61 -37 -105q0 -43 24 -67q25 -25 68 -25q26 0 53 6q20 5 49 23v-131q-39 -24 -67 -31q-42 -10 -72 -10q-88 0 -149 55q-62 56 -62 139z" />
    <glyph glyph-name="iogonek" unicode="&#x12f;" horiz-adv-x="528" 
d="M131 1364h-4q0 55 37 92t96 37t96 -37t37 -92t-37 -92t-94 -37t-94 37t-37 92zM-16 -330l-7 -2q0 73 33 135q33 65 150 197v1034h188v-1034h-33q-104 -125 -139 -184q-37 -61 -37 -105q0 -42 25 -67t67 -25q27 0 54 6q20 5 49 23v-131q-38 -23 -68 -31q-42 -10 -71 -10
q-89 0 -150 55t-61 139z" />
    <glyph glyph-name="Idotaccent" unicode="&#x130;" horiz-adv-x="577" 
d="M387 0h-197v1440h197v-1440zM412 1708q0 -50 -37 -84q-41 -35 -86 -35q-49 0 -84 35t-35 84q0 45 35 86q34 37 84 37q49 0 86 -37t37 -86z" />
    <glyph glyph-name="dotlessi" unicode="&#x131;" horiz-adv-x="528" 
d="M358 0h-188v1034h188v-1034z" />
    <glyph glyph-name="IJ" unicode="&#x132;" horiz-adv-x="1761" 
d="M387 0h-197v1440h197v-1440zM1389 1440l194 -4v-987q0 -213 -135 -345q-139 -133 -346 -133q-209 0 -344 135t-135 347h196q0 -129 78 -213q77 -80 203 -80q130 0 209 82q80 83 80 215v983z" />
    <glyph glyph-name="ij" unicode="&#x133;" horiz-adv-x="1067" 
d="M131 1364h-4q0 55 37 92t96 37t96 -37t37 -92t-37 -92t-94 -37t-94 37t-37 92zM354 0h-188v1034h188v-1034zM926 1368q0 -51 -37 -88t-92 -37q-51 0 -92 35q-37 34 -37 90t37 90q41 35 92 35q55 0 92 -37t37 -88zM705 1034l180 -2v-1108q0 -191 -92 -291
q-91 -98 -281 -98h-31q-9 0 -37 4v166q6 -2 25 -2h16q114 0 166 55q54 60 54 170v1106z" />
    <glyph glyph-name="Jcircumflex" unicode="&#x134;" horiz-adv-x="1183" 
d="M811 1440l195 -4v-987q0 -212 -136 -345q-139 -133 -346 -133q-209 0 -344 135t-135 347h197q0 -130 77 -213q77 -80 203 -80q130 0 209 82q80 83 80 215v983zM584 1563l237 297h168l240 -297h-168l-154 190l-157 -190h-166z" />
    <glyph glyph-name="jcircumflex" unicode="&#x135;" horiz-adv-x="540" 
d="M-45 1171l238 297h167l240 -297h-168l-153 191l-158 -191h-166zM182 1034l185 -4v-1108q0 -199 -93 -295q-91 -94 -282 -94h-31q-9 0 -37 4v166h21h18q114 0 166 55q53 59 53 170v1106z" />
    <glyph glyph-name="uni0136" unicode="&#x136;" horiz-adv-x="1228" 
d="M780 -295l-92 -233h-106l77 180q-39 9 -63 39q-25 31 -25 67q0 47 31 78t78 31q49 0 80 -31t31 -78q0 -15 -3 -24q-7 -27 -8 -29zM195 1438h196v-670l594 670h236l-625 -701l633 -739h-254l-584 686v-686h-196v1440z" />
    <glyph glyph-name="uni0137" unicode="&#x137;" horiz-adv-x="1052" 
d="M694 -295l-92 -233h-106l77 180q-39 9 -63 39q-25 31 -25 67q0 47 31 78t78 31q49 0 80 -31t31 -78q0 -15 -3 -24q-7 -27 -8 -29zM358 -2h-188v1518h188v-924l410 440h229l-440 -465l514 -569h-246l-467 522v-522z" />
    <glyph glyph-name="kgreenlandic" unicode="&#x138;" horiz-adv-x="1052" 
d="M354 0h-188v1034h188v-440l410 440h229l-440 -465l514 -569h-246l-467 522v-522z" />
    <glyph glyph-name="Lacute" unicode="&#x139;" horiz-adv-x="1075" 
d="M381 1567h-180l166 297h182zM1040 0h-850v1440h197v-1260h653v-180z" />
    <glyph glyph-name="lacute" unicode="&#x13a;" horiz-adv-x="528" 
d="M356 1655h-180l166 297h182zM170 1518h188v-1518h-188v1518z" />
    <glyph glyph-name="uni013B" unicode="&#x13b;" horiz-adv-x="1075" 
d="M715 -295l-92 -233h-107l78 180q-40 9 -64 39t-24 67q0 47 31 78t77 31q49 0 80 -31t31 -78q0 -18 -2 -24q-7 -27 -8 -29zM1044 -2h-849v1440h196v-1260h653v-180z" />
    <glyph glyph-name="uni013C" unicode="&#x13c;" horiz-adv-x="528" 
d="M362 -295l-92 -233h-106l78 180q-40 9 -64 39t-24 67q0 48 30 78q31 31 78 31q49 0 80 -31t31 -78q0 -18 -2 -24q-6 -24 -9 -29zM174 1516h188v-1518h-188v1518z" />
    <glyph glyph-name="Lcaron" unicode="&#x13d;" horiz-adv-x="1079" 
d="M778 1331l-94 -252h-121l90 230q-39 9 -65 41q-25 31 -25 71q0 51 35 86t86 35t86 -35t35 -84q0 -16 -6 -34zM1040 -2h-850v1440h197v-1260h653v-180z" />
    <glyph glyph-name="lcaron" unicode="&#x13e;" horiz-adv-x="573" 
d="M750 1331l-95 -252h-120l90 230q-40 9 -66 41q-24 30 -24 71q0 52 34 86q35 35 86 35t86 -35t35 -84q0 -16 -6 -34zM170 1516h188v-1518h-188v1518z" />
    <glyph glyph-name="Ldot" unicode="&#x13f;" horiz-adv-x="1089" 
d="M1040 0h-850v1440h197v-1260h653v-180zM971 737l-4 -6q0 -57 -41 -98q-39 -39 -103 -39q-57 0 -98 41t-41 98q0 62 41 103t102 41q64 0 103 -39q41 -41 41 -101z" />
    <glyph glyph-name="ldot" unicode="&#x140;" horiz-adv-x="751" 
d="M170 1518h188v-1518h-188v1518zM782 737l-4 -6q0 -57 -41 -98q-39 -39 -102 -39q-57 0 -98 41t-41 98q0 62 41 103t102 41q63 0 102 -39q41 -41 41 -101z" />
    <glyph glyph-name="Lslash" unicode="&#x141;" horiz-adv-x="1130" 
d="M1094 0h-850v506l-160 -90v188l160 90v746h196v-635l314 176v-188l-314 -177v-436h654v-180z" />
    <glyph glyph-name="lslash" unicode="&#x142;" horiz-adv-x="733" 
d="M475 0h-188v647l-217 -123v178l217 123v693h188v-586l219 123v-178l-219 -123v-754z" />
    <glyph glyph-name="Nacute" unicode="&#x143;" horiz-adv-x="1460" 
d="M823 1567h-180l166 297h182zM377 0h-187v1440h189l704 -1114v1114h187v-1440h-191l-702 1112v-1112z" />
    <glyph glyph-name="nacute" unicode="&#x144;" horiz-adv-x="1226" 
d="M717 1171h-180l165 297h183zM354 0l-186 -6v1034h180v-145q57 84 141 127q85 43 189 43q181 0 289 -111q108 -114 108 -293v-653h-188v610q0 131 -68 205t-190 74q-121 0 -199 -84q-76 -82 -76 -209v-592z" />
    <glyph glyph-name="uni0145" unicode="&#x145;" horiz-adv-x="1460" 
d="M825 -295l-92 -233h-106l78 180q-40 9 -64 39q-25 31 -25 67q0 47 31 78t78 31q49 0 80 -31t31 -78q0 -18 -2 -24q-6 -24 -9 -29zM381 -2h-186v1440h188l704 -1114v1114h187v-1440h-191l-702 1112v-1112z" />
    <glyph glyph-name="uni0146" unicode="&#x146;" horiz-adv-x="1226" 
d="M719 -295l-92 -233h-107l78 180q-39 9 -63 39q-25 31 -25 67q0 47 31 78t77 31q49 0 80 -31t31 -78q0 -18 -2 -24q-7 -27 -8 -29zM358 -2l-186 -6v1034h180v-145q56 83 142 127q85 43 188 43q181 0 289 -111q108 -114 108 -293v-653h-188v610q0 131 -68 205t-190 74
q-121 0 -199 -84q-76 -82 -76 -209v-592z" />
    <glyph glyph-name="Ncaron" unicode="&#x147;" horiz-adv-x="1460" 
d="M377 0h-187v1440h189l704 -1114v1114h187v-1440h-191l-702 1112v-1112zM408 1864h165l158 -191l154 191h168l-240 -297h-168z" />
    <glyph glyph-name="ncaron" unicode="&#x148;" horiz-adv-x="1226" 
d="M301 1468h166l158 -190l153 190h168l-239 -297h-168zM354 0l-186 -6v1034h180v-145q57 84 141 127q85 43 189 43q181 0 289 -111q108 -114 108 -293v-653h-188v610q0 131 -68 205t-190 74q-121 0 -199 -84q-76 -82 -76 -209v-592z" />
    <glyph glyph-name="napostrophe" unicode="&#x149;" horiz-adv-x="1226" 
d="M233 1358l-92 -234h-106l78 181q-41 9 -64 38q-24 30 -24 68q0 48 30 78q31 31 78 31q49 0 80 -31t31 -78q0 -19 -2 -25q-6 -22 -9 -28zM358 -2l-186 -6v1034h180v-145q56 83 142 127q85 43 188 43q181 0 289 -111q108 -114 108 -293v-653h-188v610q0 131 -68 205
t-190 74q-121 0 -199 -84q-76 -82 -76 -209v-592z" />
    <glyph glyph-name="Omacron" unicode="&#x14c;" horiz-adv-x="1697" 
d="M94 721l-2 -2q0 313 215 528t539 215q322 0 540 -215t218 -528q0 -314 -218 -529t-540 -215t-537 215t-215 531zM1397 719q0 230 -160 395q-158 162 -393 162q-236 0 -391 -162q-158 -166 -158 -395q0 -231 158 -397q157 -160 393 -160t393 160q158 166 158 397z
M1124 1620h-551v129h551v-129z" />
    <glyph glyph-name="omacron" unicode="&#x14d;" horiz-adv-x="1269" 
d="M911 1231h-551v129h551v-129zM84 518v-6q0 229 158 387q156 156 393 156t393 -156q158 -158 158 -383q0 -229 -158 -387q-156 -156 -393 -156q-235 0 -393 158t-158 387zM999 512h-4q0 153 -104 260t-258 107t-258 -107q-105 -108 -105 -260q0 -156 105 -264
q104 -107 260 -107t260 107t104 264z" />
    <glyph glyph-name="Obreve" unicode="&#x14e;" horiz-adv-x="1697" 
d="M94 721l-2 -2q0 313 215 528t539 215q322 0 540 -215t218 -528q0 -314 -218 -529t-540 -215t-537 215t-215 531zM1397 719q0 230 -160 395q-158 162 -393 162q-236 0 -391 -162q-158 -166 -158 -395q0 -231 158 -397q157 -160 393 -160t393 160q158 166 158 397z
M848 1546l4 -2q-131 0 -215 84q-82 82 -82 209h139q0 -76 41 -123t115 -47t115 47t41 123h139q0 -127 -82 -209t-215 -82z" />
    <glyph glyph-name="obreve" unicode="&#x14f;" horiz-adv-x="1269" 
d="M84 518v-6q0 229 158 387q156 156 393 156t393 -156q158 -158 158 -383q0 -229 -158 -387q-156 -156 -393 -156q-235 0 -393 158t-158 387zM999 512h-4q0 153 -104 260t-258 107t-258 -107q-105 -108 -105 -260q0 -156 105 -264q104 -107 260 -107t260 107t104 264z
M633 1149l4 -2q-131 0 -215 84q-82 82 -82 209h139q0 -76 41 -123t115 -47t115 47t41 123h139q0 -127 -82 -209t-215 -82z" />
    <glyph glyph-name="Ohungarumlaut" unicode="&#x150;" horiz-adv-x="1697" 
d="M784 1864h172l-147 -297h-170zM1038 1864h172l-147 -297h-172zM94 721l-2 -2q0 313 215 528t539 215q322 0 540 -215t218 -528q0 -314 -218 -529t-540 -215t-537 215t-215 531zM1397 719q0 230 -160 395q-158 162 -393 162q-236 0 -391 -162q-158 -166 -158 -395
q0 -231 158 -397q157 -160 393 -160t393 160q158 166 158 397z" />
    <glyph glyph-name="ohungarumlaut" unicode="&#x151;" horiz-adv-x="1269" 
d="M569 1468h172l-147 -297h-170zM823 1468h172l-147 -297h-172zM84 518v-6q0 229 158 387q156 156 393 156t393 -156q158 -158 158 -383q0 -229 -158 -387q-156 -156 -393 -156q-235 0 -393 158t-158 387zM999 512h-4q0 153 -104 260t-258 107t-258 -107
q-105 -108 -105 -260q0 -156 105 -264q104 -107 260 -107t260 107t104 264z" />
    <glyph glyph-name="OE" unicode="&#x152;" horiz-adv-x="2400" 
d="M2288 0l-889 -2v244q-106 -132 -250 -199q-143 -70 -320 -70q-301 0 -518 220q-215 218 -215 526t215 526q216 219 518 219q179 0 320 -69q144 -67 250 -199v244h878v-180h-682v-441h633v-172h-633v-467h693v-180zM1399 719q0 230 -160 395q-158 162 -393 162
q-236 0 -391 -162q-158 -166 -158 -395q0 -231 158 -397q157 -160 393 -160t393 160q158 166 158 397z" />
    <glyph glyph-name="oe" unicode="&#x153;" horiz-adv-x="2158" 
d="M84 518l-8 -4q0 216 157 381q157 160 375 160q156 0 281 -70t196 -197q71 126 191 197q123 72 262 72q229 0 381 -152t152 -375v-65h-889q15 -145 114 -236q100 -92 240 -92q108 0 193 49q84 49 129 140h186q-53 -165 -189 -258q-133 -95 -317 -95q-141 0 -264 72
q-119 70 -187 197q-71 -127 -196 -197t-277 -70q-217 0 -374 160q-156 156 -156 383zM1534 893l-2 2q-131 0 -219 -76q-91 -79 -125 -203h686q-30 128 -123 203q-92 74 -217 74zM989 516h-4q0 153 -104 260t-258 107t-258 -107q-105 -108 -105 -260q0 -156 105 -264
q104 -107 260 -107t260 107t104 264z" />
    <glyph glyph-name="Racute" unicode="&#x154;" horiz-adv-x="1361" 
d="M387 0l-201 2v1440h516q238 0 388 -117q149 -116 149 -313q0 -181 -119 -297q-124 -118 -319 -144l508 -571h-252l-496 565h-174v-565zM692 1270h-309v-541h309q152 0 246 76t94 203q0 120 -94 190q-97 72 -246 72zM776 1569h-180l166 297h182z" />
    <glyph glyph-name="racute" unicode="&#x155;" horiz-adv-x="778" 
d="M551 1171h-180l166 297h182zM674 870l-6 -2q-146 0 -232 -92t-86 -235v-543h-188v1034h180v-192q50 98 137 153q91 54 195 54h31q18 0 24 -3v-178q-28 4 -31 4h-24z" />
    <glyph glyph-name="uni0156" unicode="&#x156;" horiz-adv-x="1361" 
d="M821 -295l-92 -233h-106l77 180q-39 9 -63 39q-25 31 -25 67q0 47 31 78t78 31q49 0 80 -31q30 -30 30 -78q0 -18 -2 -24q-7 -27 -8 -29zM391 -2l-201 2v1440h517q237 0 387 -117q149 -116 149 -313q0 -181 -119 -297q-124 -118 -319 -144l508 -571h-252l-496 565h-174
v-565zM696 1268h-309v-541h309q152 0 246 76t94 203q0 120 -94 190q-97 72 -246 72z" />
    <glyph glyph-name="uni0157" unicode="&#x157;" horiz-adv-x="778" 
d="M358 -295l-92 -233h-106l78 180q-40 9 -64 39t-24 67q0 48 30 78q31 31 78 31q49 0 80 -31t31 -78q0 -18 -2 -24q-6 -24 -9 -29zM678 868l-6 -2q-146 0 -232 -92t-86 -235v-543h-188v1034h180v-192q50 98 137 153q89 53 195 53h31q20 0 24 -2v-178q-28 4 -31 4h-24z" />
    <glyph glyph-name="Rcaron" unicode="&#x158;" horiz-adv-x="1361" 
d="M387 0l-201 2v1440h516q238 0 388 -117q149 -116 149 -313q0 -181 -119 -297q-124 -118 -319 -144l508 -571h-252l-496 565h-174v-565zM692 1270h-309v-541h309q152 0 246 76t94 203q0 120 -94 190q-97 72 -246 72zM360 1866h166l158 -191l154 191h168l-240 -297h-168z
" />
    <glyph glyph-name="rcaron" unicode="&#x159;" horiz-adv-x="778" 
d="M135 1468h166l158 -190l153 190h168l-239 -297h-168zM674 870l-6 -2q-146 0 -232 -92t-86 -235v-543h-188v1034h180v-192q50 98 137 153q91 54 195 54h31q18 0 24 -3v-178q-28 4 -31 4h-24z" />
    <glyph glyph-name="Sacute" unicode="&#x15a;" horiz-adv-x="1245" 
d="M610 1464l2 -4q229 0 361 -117t147 -333h-200q-9 139 -91 209q-83 71 -219 71q-127 0 -202 -57q-78 -60 -78 -154q0 -80 47 -133q48 -48 178 -88l207 -59q213 -62 299 -154t86 -237q0 -203 -135 -320t-367 -117q-254 0 -399 127t-154 363h199q6 -153 98 -236
q88 -82 252 -82q143 0 227 66q82 64 82 184q0 83 -55 135q-56 53 -217 99l-170 49q-213 62 -295 153q-82 88 -82 240q0 174 135 285q134 110 344 110zM705 1563h-181l166 297h182z" />
    <glyph glyph-name="sacute" unicode="&#x15b;" horiz-adv-x="1017" 
d="M600 1171h-180l166 297h182zM508 1059l-14 2q176 0 286 -84q106 -81 115 -240h-193q-3 86 -55 129t-153 43q-91 0 -146 -37t-55 -96q0 -56 37 -86q40 -32 153 -57l125 -29q171 -41 240 -110q72 -72 72 -187q0 -153 -111 -241q-109 -89 -295 -89q-205 0 -324 93
q-116 91 -122 264h196q3 -101 68 -154q63 -51 178 -51q106 0 164 43q59 44 59 119q0 58 -37 92q-36 34 -133 55l-151 35q-165 38 -232 105t-67 182q0 135 110 217q107 82 285 82z" />
    <glyph glyph-name="Scircumflex" unicode="&#x15c;" horiz-adv-x="1245" 
d="M610 1464l2 -4q229 0 361 -117t147 -333h-200q-9 139 -91 209q-83 71 -219 71q-127 0 -202 -57q-78 -60 -78 -154q0 -80 47 -133q48 -48 178 -88l207 -59q213 -62 299 -154t86 -237q0 -203 -135 -320t-367 -117q-254 0 -399 127t-154 363h199q6 -153 98 -236
q88 -82 252 -82q143 0 227 66q82 64 82 184q0 83 -55 135q-56 53 -217 99l-170 49q-213 62 -295 153q-82 88 -82 240q0 174 135 285q134 110 344 110zM291 1563l237 297h168l240 -297h-168l-154 190l-157 -190h-166z" />
    <glyph glyph-name="scircumflex" unicode="&#x15d;" horiz-adv-x="1017" 
d="M186 1171l238 297h168l239 -297h-167l-154 191l-158 -191h-166zM508 1059l-14 2q176 0 286 -84q106 -81 115 -240h-193q-3 86 -55 129t-153 43q-91 0 -146 -37t-55 -96q0 -56 37 -86q40 -32 153 -57l125 -29q171 -41 240 -110q72 -72 72 -187q0 -153 -111 -241
q-109 -89 -295 -89q-205 0 -324 93q-116 91 -122 264h196q3 -101 68 -154q63 -51 178 -51q106 0 164 43q59 44 59 119q0 58 -37 92q-36 34 -133 55l-151 35q-165 38 -232 105t-67 182q0 135 110 217q107 82 285 82z" />
    <glyph glyph-name="Scedilla" unicode="&#x15e;" horiz-adv-x="1245" 
d="M610 1464l-2 -14q229 0 361 -117t147 -334h-201q-9 140 -90 209q-84 72 -219 72q-128 0 -203 -57q-77 -59 -77 -154q0 -86 45 -131q44 -47 180 -88l207 -59q213 -62 299 -154t86 -238q0 -187 -117 -301t-324 -129l-51 -84h6q103 0 160 -57q62 -59 62 -150q0 -88 -68 -147
q-71 -59 -166 -59q-97 0 -162 53q-61 52 -67 141h143q3 -35 29 -55q21 -21 59 -21q37 0 62 25q24 24 24 61q0 40 -24 64t-64 24q-32 0 -45 -8q-21 -9 -41 -32l-113 59l115 188q-217 18 -342 146q-123 126 -129 344h199q6 -153 98 -236q88 -82 252 -82q143 0 227 66
q82 64 82 184q0 83 -55 135t-215 99l-170 49q-213 62 -295 153q-82 88 -82 240q0 174 135 285q134 110 344 110z" />
    <glyph glyph-name="scedilla" unicode="&#x15f;" horiz-adv-x="1017" 
d="M508 1059l-16 2q176 0 286 -84q106 -81 115 -240h-193q-3 86 -55 129t-153 43q-91 0 -146 -37t-55 -96q0 -56 37 -86q40 -31 155 -57l125 -29q171 -41 240 -110q72 -72 72 -187q0 -138 -93 -225q-91 -85 -254 -100l-51 -84h6q102 0 160 -58q62 -59 62 -149
q0 -89 -68 -148q-71 -59 -166 -59q-97 0 -162 53q-61 52 -67 141h143q3 -35 29 -55q20 -20 59 -20q38 0 62 24t24 62q0 39 -24 63q-25 25 -64 25q-32 0 -45 -8q-20 -9 -41 -33l-113 59l117 189q-171 15 -266 104q-94 88 -100 246h196q3 -101 68 -154q63 -51 178 -51
q106 0 164 43q59 44 59 119q0 58 -37 92q-36 34 -133 55l-151 35q-165 38 -232 105t-67 182q0 135 110 217q107 82 285 82z" />
    <glyph glyph-name="Scaron" unicode="&#x160;" horiz-adv-x="1245" 
d="M610 1464l2 -4q229 0 361 -117t147 -333h-200q-9 139 -91 209q-83 71 -219 71q-127 0 -202 -57q-78 -60 -78 -154q0 -80 47 -133q48 -48 178 -88l207 -59q213 -62 299 -154t86 -237q0 -203 -135 -320t-367 -117q-254 0 -399 127t-154 363h199q6 -153 98 -236
q88 -82 252 -82q143 0 227 66q82 64 82 184q0 83 -55 135q-56 53 -217 99l-170 49q-213 62 -295 153q-82 88 -82 240q0 174 135 285q134 110 344 110zM289 1860h166l157 -191l154 191h168l-240 -297h-168z" />
    <glyph glyph-name="scaron" unicode="&#x161;" horiz-adv-x="1017" 
d="M186 1468h166l158 -190l154 190h167l-239 -297h-168zM508 1059l-14 2q176 0 286 -84q106 -81 115 -240h-193q-3 86 -55 129t-153 43q-91 0 -146 -37t-55 -96q0 -56 37 -86q40 -32 153 -57l125 -29q171 -41 240 -110q72 -72 72 -187q0 -153 -111 -241q-109 -89 -295 -89
q-205 0 -324 93q-116 91 -122 264h196q3 -101 68 -154q63 -51 178 -51q106 0 164 43q59 44 59 119q0 58 -37 92q-36 34 -133 55l-151 35q-165 38 -232 105t-67 182q0 135 110 217q107 82 285 82z" />
    <glyph glyph-name="uni0162" unicode="&#x162;" horiz-adv-x="1105" 
d="M481 0h-26v1260h-422v180h1040v-180h-424v-1260h-26l-66 -106h6q102 0 160 -58q61 -58 61 -149q0 -90 -67 -148q-71 -59 -166 -59q-97 0 -162 53q-61 52 -67 141h143q3 -35 29 -55q20 -20 59 -20q37 0 61 24q25 25 25 62q0 38 -25 63t-63 25q-30 0 -45 -9q-21 -9 -41 -32
l-113 59z" />
    <glyph glyph-name="uni0163" unicode="&#x163;" horiz-adv-x="774" 
d="M221 1034l-2 324l189 45v-367h270v-168h-270v-532q0 -112 38 -150q40 -43 129 -43q35 0 76 13q41 15 78 39v-168q-44 -27 -92 -39q-50 -13 -98 -13l-50 -81h7q101 0 159 -58q62 -59 62 -149q0 -89 -68 -148q-71 -59 -166 -59q-96 0 -161 53q-62 53 -68 141h143
q3 -35 29 -55q20 -20 59 -20q38 0 62 24t24 62q0 39 -24 63q-25 25 -64 25q-30 0 -45 -9q-21 -9 -41 -32l-112 59l125 203q-97 28 -142 108q-47 83 -47 220v544h-174v168h174z" />
    <glyph glyph-name="Tcaron" unicode="&#x164;" horiz-adv-x="1105" 
d="M649 0h-194v1260h-422v180h1040v-180h-424v-1260zM225 1864h166l158 -191l153 191h168l-239 -297h-168z" />
    <glyph glyph-name="tcaron" unicode="&#x165;" horiz-adv-x="774" 
d="M801 1442l-94 -252h-121l90 229q-40 9 -66 41q-24 30 -24 72q0 51 35 86t86 35t86 -35q34 -34 34 -84q0 -17 -6 -35zM221 1032l2 324l189 45v-367h270v-168h-270v-532q0 -111 39 -150q40 -43 129 -43q34 0 75 13q41 15 78 39v-168q-44 -27 -92 -39q-50 -13 -100 -13
q-160 0 -240 86t-80 260v545h-174v168h174z" />
    <glyph glyph-name="Tbar" unicode="&#x166;" horiz-adv-x="1165" 
d="M680 0h-195v668h-311v163h311v429h-422v180h1041v-180h-424v-429h307v-163h-307v-668z" />
    <glyph glyph-name="tbar" unicode="&#x167;" horiz-adv-x="796" 
d="M422 639l272 2v-154h-270v-151q0 -111 39 -150q40 -43 129 -43q35 0 76 13q38 14 77 39v-168q-44 -27 -92 -39q-50 -13 -100 -13q-160 0 -240 86t-80 261v163h-174v154h174v227h-174v168h174v322l189 45v-367h270v-168h-270v-227z" />
    <glyph glyph-name="Utilde" unicode="&#x168;" horiz-adv-x="1409" 
d="M1036 1440l197 -6v-965q0 -217 -150 -358q-151 -142 -381 -142q-225 0 -376 142q-150 141 -150 360v965h197v-959q0 -140 92 -229q88 -88 235 -88q156 0 244 88q92 89 92 233v959zM764 1745l-4 -2l43 -37q8 -8 24 -8q29 0 41 24q13 24 23 88h127q-9 -125 -55 -186
t-136 -61q-45 0 -73 14q-34 15 -80 61q-22 29 -43 41q-18 11 -35 11q-36 0 -55 -29q-19 -34 -27 -92h-127q9 125 62 190q52 64 151 64q32 0 78 -17q37 -15 86 -61z" />
    <glyph glyph-name="utilde" unicode="&#x169;" horiz-adv-x="1208" 
d="M588 147v5q117 0 192 84q74 83 74 208v592h188v-1034h-180v148q-53 -84 -135 -130q-80 -45 -182 -45q-175 0 -283 111q-106 106 -106 293v653h188v-610q0 -123 66 -201q65 -74 178 -74zM655 1368l-4 -2l43 -37q8 -8 25 -8q29 0 41 25q12 21 22 88h127q-9 -126 -55 -187
t-135 -61q-46 0 -74 14q-32 14 -80 62q-22 29 -43 41q-17 10 -35 10q-36 0 -55 -29q-18 -32 -26 -92h-127q9 126 61 190t152 64q34 0 77 -16q35 -14 86 -62z" />
    <glyph glyph-name="Umacron" unicode="&#x16a;" horiz-adv-x="1409" 
d="M1036 1440l197 -6v-965q0 -217 -150 -358q-151 -142 -381 -142q-225 0 -376 142q-150 141 -150 360v965h197v-959q0 -140 92 -229q88 -88 235 -88q156 0 244 88q92 89 92 233v959zM981 1616h-551v129h551v-129z" />
    <glyph glyph-name="umacron" unicode="&#x16b;" horiz-adv-x="1208" 
d="M588 147v5q117 0 192 84q74 83 74 208v592h188v-1034h-180v148q-53 -84 -135 -130q-80 -45 -182 -45q-175 0 -283 111q-106 106 -106 293v653h188v-610q0 -123 66 -201q65 -74 178 -74zM874 1235h-550v129h550v-129z" />
    <glyph glyph-name="Ubreve" unicode="&#x16c;" horiz-adv-x="1409" 
d="M1036 1440l197 -6v-965q0 -217 -150 -358q-151 -142 -381 -142q-225 0 -376 142q-150 141 -150 360v965h197v-959q0 -140 92 -229q88 -88 235 -88q156 0 244 88q92 89 92 233v959zM705 1542l4 -2q-131 0 -215 84q-82 82 -82 209h139q0 -76 41 -123t115 -47q73 0 114 47
t41 123h139q0 -128 -81 -209q-82 -82 -215 -82z" />
    <glyph glyph-name="ubreve" unicode="&#x16d;" horiz-adv-x="1208" 
d="M588 147v5q117 0 192 84q74 83 74 208v592h188v-1034h-180v148q-53 -84 -135 -130q-80 -45 -182 -45q-175 0 -283 111q-106 106 -106 293v653h188v-610q0 -123 66 -201q65 -74 178 -74zM598 1159l4 -2q-131 0 -215 84q-82 82 -82 209h139q0 -76 41 -123t115 -47t115 47
t41 123h139q0 -127 -82 -209t-215 -82z" />
    <glyph glyph-name="Uring" unicode="&#x16e;" horiz-adv-x="1409" 
d="M911 1749l-2 -4q0 -83 -61 -141q-58 -58 -148 -58q-87 0 -147 60q-59 59 -59 141q0 83 61 141q66 60 147 60q90 0 148 -58q61 -58 61 -141zM610 1745l-2 -4q0 -41 27 -68q26 -26 67 -26q40 0 68 28q29 29 29 68q0 40 -27 67q-29 29 -67 29q-41 0 -68 -27t-27 -67z
M1032 1432l197 -7v-964q0 -218 -150 -359t-381 -141q-226 0 -376 141t-150 361v964h197v-958q0 -140 92 -229q88 -88 235 -88q156 0 244 88q92 89 92 233v959z" />
    <glyph glyph-name="uring" unicode="&#x16f;" horiz-adv-x="1208" 
d="M805 1356l-2 -4q0 -83 -62 -142q-57 -57 -147 -57q-89 0 -148 59t-59 142q0 82 62 141q65 59 147 59q90 0 147 -57q62 -59 62 -141zM504 1352l-2 -4q0 -42 26 -68q27 -27 68 -27q39 0 68 29q28 28 28 68q0 41 -26 67q-29 29 -68 29q-41 0 -68 -27q-26 -26 -26 -67z
M584 139v4q117 0 192 84q74 83 74 209v592h188v-1034h-180v147q-52 -83 -135 -129q-80 -45 -182 -45q-175 0 -283 111q-106 106 -106 293v653h188v-610q0 -123 66 -201q65 -74 178 -74z" />
    <glyph glyph-name="Uhungarumlaut" unicode="&#x170;" horiz-adv-x="1409" 
d="M639 1864h172l-147 -297h-170zM893 1864h172l-147 -297h-173zM1036 1440l197 -6v-965q0 -217 -150 -358q-151 -142 -381 -142q-225 0 -376 142q-150 141 -150 360v965h197v-959q0 -140 92 -229q88 -88 235 -88q156 0 244 88q92 89 92 233v959z" />
    <glyph glyph-name="uhungarumlaut" unicode="&#x171;" horiz-adv-x="1208" 
d="M588 147v5q117 0 192 84q74 83 74 208v592h188v-1034h-180v148q-53 -84 -135 -130q-80 -45 -182 -45q-175 0 -283 111q-106 106 -106 293v653h188v-610q0 -123 66 -201q65 -74 178 -74zM530 1473h172l-147 -297h-170zM784 1473h172l-147 -297h-172z" />
    <glyph glyph-name="Uogonek" unicode="&#x172;" horiz-adv-x="1409" 
d="M1036 1440l191 -8v-965q0 -106 -37 -193q-40 -94 -107 -161q-134 -140 -188 -230q-61 -101 -61 -178q0 -43 24 -67q25 -25 68 -25q26 0 53 6q20 5 49 23v-131q-39 -24 -67 -31q-42 -10 -72 -10q-89 0 -150 55t-61 139q0 75 31 148q27 64 108 168q-16 -4 -59 -9
q-18 -2 -56 -2q-225 0 -376 142q-150 141 -150 360v965h197v-959q0 -140 92 -229q88 -88 235 -88q156 0 244 88q92 89 92 233v959z" />
    <glyph glyph-name="uogonek" unicode="&#x173;" horiz-adv-x="1208" 
d="M588 147l-6 3q118 0 192 83t74 209v592h188v-1034h-24q-108 -129 -140 -184q-36 -59 -36 -105q0 -43 24 -67q25 -25 68 -25q26 0 53 6q20 5 49 23v-131q-39 -24 -67 -31q-42 -10 -72 -10q-89 0 -150 55t-61 139q0 73 33 135q34 67 149 197v148q-53 -84 -135 -130
q-80 -45 -182 -45q-175 0 -283 111q-106 106 -106 293v653h188v-610q0 -123 66 -201q65 -74 178 -74z" />
    <glyph glyph-name="Wcircumflex" unicode="&#x174;" horiz-adv-x="2027" 
d="M696 1567l238 297h168l239 -297h-167l-154 190l-158 -190h-166zM682 0h-209l-422 1440h211l326 -1164l342 1164h182l336 -1151l328 1151h202l-424 -1440h-208l-330 1096z" />
    <glyph glyph-name="wcircumflex" unicode="&#x175;" horiz-adv-x="1740" 
d="M551 1171l237 297h168l240 -297h-168l-154 191l-157 -191h-166zM594 0h-191l-362 1034h188l277 -811l276 811h181l278 -813l277 813h182l-363 -1034h-188l-279 795z" />
    <glyph glyph-name="Ycircumflex" unicode="&#x176;" horiz-adv-x="1294" 
d="M748 0h-197v524l-500 916h219l381 -715l387 715h205l-495 -903v-537zM340 1567l238 297h167l240 -297h-168l-153 190l-158 -190h-166z" />
    <glyph glyph-name="ycircumflex" unicode="&#x177;" horiz-adv-x="1085" 
d="M848 1034h194l-559 -1468h-188l156 420l-410 1048h199l305 -813zM221 1171l238 297h168l239 -297h-168l-153 191l-158 -191h-166z" />
    <glyph glyph-name="Ydieresis" unicode="&#x178;" horiz-adv-x="1294" 
d="M748 0h-197v524l-500 916h219l381 -715l387 715h205l-495 -903v-537zM623 1700h-2q0 -47 -31 -78t-76 -31t-76 31q-30 30 -30 78t30 78t78 30q46 0 76 -30q31 -31 31 -78zM920 1700l-5 -4q0 -46 -30 -76q-31 -31 -76 -31t-76 31t-31 78t31 78q30 30 78 30t78 -30
q31 -31 31 -76z" />
    <glyph glyph-name="Zacute" unicode="&#x179;" horiz-adv-x="1179" 
d="M1098 0h-1016v160l768 1100h-758v180h995v-168l-765 -1092h776v-180zM682 1567h-180l166 297h182z" />
    <glyph glyph-name="zacute" unicode="&#x17a;" horiz-adv-x="1024" 
d="M604 1171h-180l166 297h182zM956 0h-888v127l632 739h-604v168h836v-135l-615 -731h639v-168z" />
    <glyph glyph-name="Zdotaccent" unicode="&#x17b;" horiz-adv-x="1179" 
d="M713 1708q0 -50 -37 -84q-41 -35 -86 -35q-49 0 -84 35t-35 84q0 45 35 86q34 37 84 37q49 0 86 -37t37 -86zM1098 0h-1016v160l768 1100h-758v180h995v-168l-765 -1092h776v-180z" />
    <glyph glyph-name="zdotaccent" unicode="&#x17c;" horiz-adv-x="1024" 
d="M956 0h-888v127l632 739h-604v168h836v-135l-615 -731h639v-168zM633 1317q0 -50 -37 -84q-41 -35 -86 -35q-49 0 -84 35t-35 84q0 45 35 86q34 37 84 37q49 0 86 -37t37 -86z" />
    <glyph glyph-name="Zcaron" unicode="&#x17d;" horiz-adv-x="1179" 
d="M1098 0h-1016v160l768 1100h-758v180h995v-168l-765 -1092h776v-180zM266 1864h166l158 -191l153 191h168l-239 -297h-168z" />
    <glyph glyph-name="zcaron" unicode="&#x17e;" horiz-adv-x="1024" 
d="M190 1468h166l158 -190l154 190h168l-240 -297h-168zM956 0h-888v127l632 739h-604v168h836v-135l-615 -731h639v-168z" />
    <glyph glyph-name="longs" unicode="&#x17f;" horiz-adv-x="561" 
d="M354 0h-188v1153q0 200 92 295q93 96 283 96q21 0 67 -4q39 -3 64 -10v-166q-68 10 -74 10h-25q-113 0 -165 -55q-54 -60 -54 -168v-1151z" />
    <glyph glyph-name="florin" unicode="&#x192;" horiz-adv-x="1140" 
d="M696 752l-129 -832q-35 -218 -123 -303q-89 -86 -260 -86q-17 0 -63 4q-41 4 -60 10v166q4 -1 50 -8q14 -2 43 -2q102 0 155 47q54 47 74 176l135 824h-229v170h256l39 231q35 213 123 301q90 90 258 90q17 0 63 -4q39 -3 59 -10v-166q-16 5 -49 10q-28 4 -43 4
q-106 0 -159 -47q-54 -47 -74 -176l-37 -229h229v-170h-258z" />
    <glyph glyph-name="uni0218" unicode="&#x218;" horiz-adv-x="1245" 
d="M737 -295l-92 -233h-106l77 180q-39 9 -63 39q-25 31 -25 67q0 47 31 78t78 31q49 0 80 -31t31 -78q0 -15 -3 -24q-7 -27 -8 -29zM614 1462l2 -4q229 0 361 -117t147 -333h-200q-9 140 -90 209q-83 71 -220 71q-127 0 -202 -57q-78 -60 -78 -154q0 -80 47 -133
q48 -48 178 -88l207 -59q213 -62 299 -154t86 -237q0 -203 -135 -320t-367 -117q-254 0 -399 127t-154 363h199q6 -153 98 -236q88 -82 252 -82q143 0 227 66q82 64 82 184q0 83 -55 135q-56 53 -217 99l-170 49q-213 62 -295 153q-82 88 -82 240q0 174 135 285
q134 110 344 110z" />
    <glyph glyph-name="uni0219" unicode="&#x219;" horiz-adv-x="1017" 
d="M618 -295l-92 -233h-106l78 180q-40 9 -64 39t-24 67q0 48 30 78q31 31 78 31q49 0 80 -31t31 -78q0 -18 -2 -24q-6 -24 -9 -29zM512 1057l-14 2q176 0 286 -84q106 -81 115 -240h-192q-3 85 -56 129q-52 43 -153 43q-91 0 -146 -37t-55 -96q0 -56 37 -86q40 -32 153 -57
l125 -29q171 -41 240 -110q72 -72 72 -187q0 -153 -111 -242q-107 -88 -295 -88q-204 0 -323 93q-117 92 -123 264h196q3 -101 68 -154q63 -51 178 -51q106 0 164 43q59 44 59 119q0 58 -37 92q-36 34 -133 55l-151 35q-166 38 -232 104q-67 67 -67 183q0 135 110 217
q107 82 285 82z" />
    <glyph glyph-name="uni021A" unicode="&#x21a;" horiz-adv-x="1105" 
d="M649 -295l-92 -233h-106l77 180q-39 9 -63 39q-25 31 -25 67q0 47 31 78t78 31q49 0 80 -31q30 -30 30 -78q0 -18 -2 -24q-7 -27 -8 -29zM653 -2h-194v1259h-422v181h1040v-181h-424v-1259z" />
    <glyph glyph-name="uni021B" unicode="&#x21b;" horiz-adv-x="774" 
d="M471 -295l-92 -233h-107l78 180q-39 9 -63 39q-25 31 -25 67q0 47 31 78t78 31q49 0 80 -31q30 -30 30 -78q0 -18 -2 -24q-7 -27 -8 -29zM225 1032l2 324l189 45v-367h270v-168h-270v-532q0 -111 39 -150q40 -43 129 -43q34 0 75 13q41 15 78 39v-168q-44 -27 -92 -39
q-50 -13 -100 -13q-160 0 -240 86t-80 260v545h-174v168h174z" />
    <glyph glyph-name="uni0237" unicode="&#x237;" horiz-adv-x="540" 
d="M182 1034l185 -4v-1108q0 -199 -93 -295q-91 -94 -282 -94h-31q-9 0 -37 4v166h21h18q114 0 166 55q53 59 53 170v1106z" />
    <glyph glyph-name="circumflex" unicode="&#x2c6;" horiz-adv-x="757" 
d="M55 1171l238 297h168l239 -297h-168l-153 191l-158 -191h-166z" />
    <glyph glyph-name="caron" unicode="&#x2c7;" horiz-adv-x="786" 
d="M49 1468h166l158 -190l153 190h168l-239 -297h-168z" />
    <glyph glyph-name="uni02C9" unicode="&#x2c9;" horiz-adv-x="729" 
d="M641 1231h-551v129h551v-129z" />
    <glyph glyph-name="breve" unicode="&#x2d8;" horiz-adv-x="727" 
d="M365 1155l4 -2q-131 0 -215 84q-82 82 -82 209h139q0 -76 41 -123t115 -47q73 0 114 47t41 123h140q0 -127 -82 -209t-215 -82z" />
    <glyph glyph-name="dotaccent" unicode="&#x2d9;" horiz-adv-x="419" 
d="M330 1317q0 -50 -37 -84q-41 -35 -86 -35q-49 0 -84 35t-35 84q0 45 35 86q34 37 84 37q49 0 86 -37t37 -86z" />
    <glyph glyph-name="ring" unicode="&#x2da;" horiz-adv-x="569" 
d="M492 1356l-3 -4q0 -84 -61 -142q-57 -57 -147 -57q-89 0 -148 59t-59 142t61 141q65 59 148 59q90 0 147 -57q62 -59 62 -141zM190 1352l-2 -4q0 -41 27 -68t68 -27q38 0 67 29t29 68q0 40 -27 67q-29 29 -67 29q-41 0 -68 -27t-27 -67z" />
    <glyph glyph-name="ogonek" unicode="&#x2db;" horiz-adv-x="524" 
d="M78 -330h-6q0 68 34 137q27 59 152 199h156q-101 -119 -142 -184q-39 -62 -39 -111q0 -42 25 -67t68 -25q26 0 53 6q20 5 49 23v-131q-38 -23 -68 -31q-42 -10 -71 -10q-89 0 -150 55t-61 139z" />
    <glyph glyph-name="tilde" unicode="&#x2dc;" horiz-adv-x="774" 
d="M442 1364l-4 -2l43 -37q8 -8 25 -8q29 0 41 24q11 21 22 89h127q-9 -126 -55 -187t-135 -61q-46 0 -74 14q-34 15 -80 61q-22 29 -43 41q-18 11 -35 11q-36 0 -55 -29q-18 -32 -26 -92h-127q9 126 61 190t152 64q31 0 77 -17q37 -15 86 -61z" />
    <glyph glyph-name="hungarumlaut" unicode="&#x2dd;" horiz-adv-x="757" 
d="M242 1468h172l-148 -297h-170zM496 1468h172l-148 -297h-172z" />
    <glyph glyph-name="uni0394" unicode="&#x394;" horiz-adv-x="1331" 
d="M563 1440h209l498 -1295v-145h-1207v145zM662 1217l-383 -1041h768z" />
    <glyph glyph-name="uni03A9" unicode="&#x3a9;" horiz-adv-x="1669" 
d="M715 0l-590 4v178h346q-182 120 -274 271q-93 152 -93 331q0 289 209 486q208 196 516 196q311 0 519 -196t208 -486q0 -179 -92 -333q-92 -151 -274 -271h346v-178h-584v223q197 93 301 234q103 139 103 313q0 209 -152 358q-151 148 -373 148q-217 0 -368 -148
q-152 -149 -152 -358q0 -176 103 -315q104 -141 301 -234v-223z" />
    <glyph glyph-name="uni03BC" unicode="&#x3bc;" horiz-adv-x="1241" 
d="M610 147l-2 3q119 0 193 83q73 82 73 209v592h189v-1034h-180v147q-53 -83 -135 -129q-80 -45 -183 -45q-54 0 -108 13q-45 10 -90 37v-459h-189v1468h189v-610q0 -124 65 -201q65 -74 178 -74z" />
    <glyph glyph-name="pi" unicode="&#x3c0;" horiz-adv-x="1341" 
d="M37 1034h1268v-172h-211v-862h-189v862h-471v-862h-186v862h-211v172z" />
    <glyph glyph-name="Wgrave" unicode="&#x1e80;" horiz-adv-x="2027" 
d="M932 1567l-168 297h182l164 -297h-178zM682 0h-209l-422 1440h211l326 -1164l342 1164h182l336 -1151l328 1151h202l-424 -1440h-208l-330 1096z" />
    <glyph glyph-name="wgrave" unicode="&#x1e81;" horiz-adv-x="1740" 
d="M594 0h-191l-362 1034h188l277 -811l276 811h181l278 -813l277 813h182l-363 -1034h-188l-279 795zM782 1171l-168 297h183l164 -297h-179z" />
    <glyph glyph-name="Wacute" unicode="&#x1e82;" horiz-adv-x="2027" 
d="M1112 1567h-180l166 297h182zM682 0h-209l-422 1440h211l326 -1164l342 1164h182l336 -1151l328 1151h202l-424 -1440h-208l-330 1096z" />
    <glyph glyph-name="wacute" unicode="&#x1e83;" horiz-adv-x="1740" 
d="M965 1171h-181l166 297h183zM594 0h-191l-362 1034h188l277 -811l276 811h181l278 -813l277 813h182l-363 -1034h-188l-279 795z" />
    <glyph glyph-name="Wdieresis" unicode="&#x1e84;" horiz-adv-x="2027" 
d="M682 0h-209l-422 1440h211l326 -1164l342 1164h182l336 -1151l328 1151h202l-424 -1440h-208l-330 1096zM981 1700h-2q0 -47 -31 -78t-76 -31q-44 0 -75 31t-31 78t31 78q30 30 77 30q46 0 76 -30q31 -31 31 -78zM1278 1700l-4 -4q0 -45 -31 -76t-76 -31q-44 0 -75 31
t-31 78t31 78q30 30 77 30q48 0 78 -30q31 -31 31 -76z" />
    <glyph glyph-name="wdieresis" unicode="&#x1e85;" horiz-adv-x="1740" 
d="M831 1309h-2q0 -48 -30 -78q-31 -31 -76 -31t-76 31t-31 78q0 46 31 77t78 31q45 0 76 -31q30 -30 30 -77zM1128 1309l-4 -4q0 -46 -30 -76q-31 -31 -76 -31t-76 31t-31 78q0 46 31 77t78 31t78 -31q30 -30 30 -75zM588 -4h-191l-362 1034h188l277 -811l276 811h180
l279 -813l276 813h183l-363 -1034h-188l-279 795z" />
    <glyph glyph-name="uni1E9E" unicode="&#x1e9e;" horiz-adv-x="1464" 
d="M934 836l-2 2q189 0 315 -117q125 -116 125 -295q0 -203 -135 -326t-344 -123q-93 0 -180 17q-78 15 -135 49v188q63 -40 141 -61q70 -20 155 -20q137 0 216 73t79 199q0 112 -75 184q-77 74 -197 74q-47 0 -74 -8q-35 -8 -65 -25l-125 119l371 500h-207
q-190 0 -310 -123q-118 -118 -118 -326v-817h-197v821q0 279 176 449t453 170h430v-156l-332 -450q2 2 12 2h23z" />
    <glyph glyph-name="Ygrave" unicode="&#x1ef2;" horiz-adv-x="1294" 
d="M748 0h-197v524l-500 916h219l381 -715l387 715h205l-495 -903v-537zM573 1567l-167 297h182l164 -297h-179z" />
    <glyph glyph-name="ygrave" unicode="&#x1ef3;" horiz-adv-x="1085" 
d="M848 1034h194l-559 -1468h-188l156 420l-410 1048h199l305 -813zM455 1171l-168 297h182l164 -297h-178z" />
    <glyph glyph-name="endash" unicode="&#x2013;" horiz-adv-x="1183" 
d="M139 625h905v-162h-905v162z" />
    <glyph glyph-name="emdash" unicode="&#x2014;" horiz-adv-x="2156" 
d="M139 625h1878v-162h-1878v162z" />
    <glyph glyph-name="quoteleft" unicode="&#x2018;" horiz-adv-x="495" 
d="M270 1440l138 -2l-136 -305q47 -12 74 -50q29 -43 29 -82q0 -61 -39 -100t-100 -39q-64 0 -103 39q-41 41 -41 98q0 19 6 37l17 41z" />
    <glyph glyph-name="quoteright" unicode="&#x2019;" horiz-adv-x="505" 
d="M256 887l-145 -4l135 305q-48 12 -74 49q-27 35 -27 84q0 61 41 102t103 41q63 0 102 -39q41 -41 41 -98q0 -19 -6 -37q-3 -7 -7 -20.5t-7 -20.5z" />
    <glyph glyph-name="quotesinglbase" unicode="&#x201a;" horiz-adv-x="512" 
d="M221 -324l-145 -4l135 305q-47 12 -74 50q-26 33 -26 84q0 61 41 102t102 41q63 0 102 -39q41 -41 41 -98q0 -19 -6 -37q-3 -7 -7 -20.5t-7 -20.5z" />
    <glyph glyph-name="quotedblleft" unicode="&#x201c;" horiz-adv-x="858" 
d="M270 1440l138 -2l-136 -305q47 -12 74 -50q29 -43 29 -82q0 -61 -39 -100t-100 -39q-64 0 -103 39q-41 41 -41 98q0 19 6 37l17 41zM627 1438l137 -2l-135 -306q46 -12 73 -49q29 -44 29 -82q0 -61 -39 -100t-100 -39q-64 0 -103 39q-40 40 -40 98q0 19 6 37l16 41z" />
    <glyph glyph-name="quotedblright" unicode="&#x201d;" horiz-adv-x="866" 
d="M256 887l-145 -4l135 305q-48 12 -74 49q-27 35 -27 84q0 61 41 102t103 41q63 0 102 -39q41 -41 41 -98q0 -19 -6 -37q-3 -7 -7 -20.5t-7 -20.5zM614 883l-145 -4l135 305q-48 12 -74 49q-26 33 -26 84q0 61 41 102t102 41q64 0 103 -39q41 -41 41 -98q0 -16 -7 -37
q-3 -7 -7 -20.5t-7 -20.5z" />
    <glyph glyph-name="quotedblbase" unicode="&#x201e;" horiz-adv-x="872" 
d="M221 -324l-145 -4l135 305q-47 12 -74 50q-26 33 -26 84q0 61 41 102t102 41q63 0 102 -39q41 -41 41 -98q0 -19 -6 -37q-3 -7 -7 -20.5t-7 -20.5zM580 -328l-146 -4l135 305q-45 12 -73 50q-27 35 -27 83q0 62 41 103t102 41q64 0 103 -39q41 -41 41 -98q0 -19 -6 -37
q-3 -7 -7.5 -20.5t-7.5 -20.5z" />
    <glyph glyph-name="dagger" unicode="&#x2020;" horiz-adv-x="972" 
d="M66 879v157h325v377l189 43v-420h327v-157h-327v-850l-189 -45v895h-325z" />
    <glyph glyph-name="daggerdbl" unicode="&#x2021;" horiz-adv-x="1038" 
d="M98 408v157h328v314h-328v157h328v377l188 43v-420h326v-157h-326v-314h326v-157h-326v-379l-188 -45v424h-328z" />
    <glyph glyph-name="bullet" unicode="&#x2022;" horiz-adv-x="784" 
d="M629 754q0 -94 -68 -162t-170 -68q-96 0 -164 68q-67 67 -67 162q0 101 65 166t166 65q99 0 170 -65q68 -65 68 -166z" />
    <glyph glyph-name="ellipsis" unicode="&#x2026;" horiz-adv-x="1325" 
d="M391 115l-4 -6q0 -58 -41 -99q-39 -39 -102 -39q-58 0 -99 41t-41 99q0 61 41 102t103 41q63 0 102 -39q41 -41 41 -100zM801 109l-4 -7q0 -57 -41 -98q-39 -39 -103 -39q-57 0 -98 41t-41 98q0 62 41 103t102 41q64 0 103 -39q41 -41 41 -100zM1210 102l-4 -6
q0 -57 -41 -98q-39 -39 -102 -39q-57 0 -98 41t-41 98q0 62 41 103t102 41q63 0 102 -39q41 -41 41 -101z" />
    <glyph glyph-name="perthousand" unicode="&#x2030;" horiz-adv-x="2330" 
d="M762 1116l2 4q0 -143 -98 -241q-99 -99 -248 -99q-143 0 -248 97q-98 94 -98 239q0 144 98 238q104 96 246 96q144 0 248 -96q98 -94 98 -238zM1239 1444h172l-1094 -1440h-172zM229 1118h2q0 -79 56 -135q55 -55 135 -55q83 0 135 55q53 59 53 135q0 80 -55 135
q-56 56 -135 56t-135 -56t-56 -135zM1493 330q0 -146 -98 -240q-104 -96 -246 -96q-144 0 -248 96q-98 94 -98 240q0 145 98 239q105 97 248 97q141 0 246 -97q98 -94 98 -239zM2271 330q0 -146 -98 -240q-104 -96 -246 -96q-144 0 -248 96q-98 94 -98 240q0 145 98 239
q105 97 248 97q141 0 246 -97q98 -94 98 -239zM961 330q0 -82 53 -135q54 -54 135 -54t135 54q53 53 53 135q0 76 -53 135q-52 55 -133 55q-80 0 -135 -55t-55 -135zM1737 330h-2q0 -83 55 -135q60 -54 137 -54q81 0 135 54t54 135q0 75 -54 135q-52 55 -133 55
q-82 0 -137 -55t-55 -135z" />
    <glyph glyph-name="guilsinglleft" unicode="&#x2039;" horiz-adv-x="604" 
d="M317 72l-223 448l223 451h185l-223 -451l223 -448h-185z" />
    <glyph glyph-name="guilsinglright" unicode="&#x203a;" horiz-adv-x="604" 
d="M287 971l223 -449l-223 -450h-185l224 450l-224 449h185z" />
    <glyph glyph-name="fraction" unicode="&#x2044;" horiz-adv-x="307" 
d="M614 1440h172l-1093 -1440h-172z" />
    <glyph glyph-name="zero.superior" unicode="&#x2070;" horiz-adv-x="698" 
d="M621 1260h2q0 -126 -74 -197q-70 -70 -197 -70q-126 0 -196 70q-74 71 -74 197v221q0 122 74 190t194 68q123 0 197 -68t74 -190v-221zM350 1599h-4q-52 0 -86 -34q-33 -33 -33 -92v-209q0 -60 33 -93q34 -34 86 -34q56 0 90 34q35 35 35 93v209q0 59 -33 92
q-34 34 -88 34z" />
    <glyph glyph-name="four.superior" unicode="&#x2074;" horiz-adv-x="665" 
d="M47 1260l277 469h172l-275 -453h187v127l147 33v-160h57v-137h-57v-131h-147v131h-361v121z" />
    <glyph glyph-name="five.superior" unicode="&#x2075;" horiz-adv-x="630" 
d="M131 1729l393 -5v-135h-276l-12 -139q20 9 43 12q28 4 43 4q117 0 180 -63q67 -64 67 -168q0 -105 -73 -172q-74 -68 -185 -68q-108 0 -184 64q-77 65 -86 162h154q6 -40 36 -64t74 -24q47 0 82 30q33 29 33 76q0 49 -33 78q-36 31 -82 31q-20 0 -49 -11q-22 -10 -37 -30
l-125 18z" />
    <glyph glyph-name="six.superior" unicode="&#x2076;" horiz-adv-x="634" 
d="M319 995v-2q-113 0 -190 74q-76 73 -76 180q0 54 19 109q19 54 61 117l170 256h174l-172 -248q16 4 17 4h16q105 0 176 -68q72 -69 72 -168q0 -107 -76 -180q-77 -74 -191 -74zM205 1245v-8q0 -49 33 -82t81 -33q47 0 82 35q33 33 33 84t-33 84q-35 35 -82 35
q-48 0 -81 -33t-33 -82z" />
    <glyph glyph-name="seven.superior" unicode="&#x2077;" horiz-adv-x="587" 
d="M375 1585h-326v144h494v-123l-277 -598h-168z" />
    <glyph glyph-name="eight.superior" unicode="&#x2078;" horiz-adv-x="667" 
d="M602 1217l-4 -5q0 -95 -74 -157t-194 -62q-121 0 -191 64q-73 64 -73 160q0 56 28 104t84 74q-40 27 -61 67t-21 82q0 82 66 139q65 56 166 56q104 0 172 -56q67 -55 67 -139q0 -43 -20 -82t-62 -67q56 -27 86 -74q31 -48 31 -104zM236 1530l-5 -2q3 -37 31 -62t68 -22
q39 3 69 26q28 25 25 62t-31 59q-30 23 -69 23q-41 0 -66 -25t-22 -59zM207 1214v-2q0 -45 31 -73q37 -29 84 -29q50 0 86 31q34 30 34 73q0 52 -32 80q-36 31 -88 31q-53 0 -84 -31t-31 -80z" />
    <glyph glyph-name="nine.superior" unicode="&#x2079;" horiz-adv-x="632" 
d="M315 1741l-8 -2q114 0 191 -74q75 -72 75 -180q0 -57 -18 -109t-61 -116l-170 -256h-174l172 247q-4 -2 -15 -2h-16q-103 0 -174 68q-70 67 -70 170q0 105 78 180q77 74 190 74zM422 1487v-8q0 51 -33 84q-34 34 -82 34q-50 0 -82 -32t-32 -82t32 -82q33 -33 82 -33
q47 0 82 35q33 33 33 84z" />
    <glyph glyph-name="zero.inferior" unicode="&#x2080;" horiz-adv-x="698" 
d="M621 -37h2q0 -125 -74 -196q-70 -70 -197 -70q-126 0 -196 70q-74 71 -74 196v221q0 123 74 191q73 67 194 67q124 0 197 -67q74 -68 74 -191v-221zM350 303h-4q-51 0 -86 -35q-33 -33 -33 -92v-209q0 -59 33 -92q35 -35 86 -35q55 0 90 35t35 92v209q0 59 -33 92
q-35 35 -88 35z" />
    <glyph glyph-name="one.inferior" unicode="&#x2081;" horiz-adv-x="434" 
d="M328 -289h-150v578h-145l35 143h260v-721z" />
    <glyph glyph-name="two.inferior" unicode="&#x2082;" horiz-adv-x="661" 
d="M596 -289l-524 6v121l274 254q39 39 55 68q17 31 17 59q0 40 -27 64t-74 24q-45 0 -73 -31t-31 -73h-154q6 108 80 176q73 67 189 67q115 0 182 -61q68 -62 68 -160q0 -59 -31 -116q-32 -54 -111 -127l-139 -127h299v-144z" />
    <glyph glyph-name="three.inferior" unicode="&#x2083;" horiz-adv-x="655" 
d="M59 -80l144 -8q3 -41 37 -68q33 -26 79 -26q48 0 84 28q31 28 31 74q0 54 -33 80q-37 29 -92 29h-61v108h57q52 0 80 25q29 26 29 65q0 41 -25 66q-24 24 -67 24q-47 0 -74 -24q-28 -25 -31 -66h-149q6 96 77 158q70 61 185 61q108 0 172 -55q63 -54 63 -137
q0 -56 -24 -96q-25 -42 -72 -66q58 -21 88 -67q31 -48 31 -111q0 -92 -74 -154q-73 -61 -192 -61q-117 0 -187 61t-76 160z" />
    <glyph glyph-name="four.inferior" unicode="&#x2084;" horiz-adv-x="667" 
d="M49 -37l277 469h172l-275 -452h187v126l147 33v-159h57v-138h-57v-131h-147v131h-361v121z" />
    <glyph glyph-name="five.inferior" unicode="&#x2085;" horiz-adv-x="630" 
d="M131 432l393 -4v-135h-276l-12 -139q20 9 43 12q28 4 43 4q116 0 180 -64q67 -64 67 -167q0 -105 -73 -172q-74 -68 -185 -68q-109 0 -184 63q-77 65 -86 162h154q6 -39 36 -63q31 -25 74 -25q46 0 82 31q33 29 33 76q0 48 -33 77q-36 31 -82 31q-22 0 -49 -10
q-21 -9 -37 -31l-125 19z" />
    <glyph glyph-name="six.inferior" unicode="&#x2086;" horiz-adv-x="634" 
d="M319 -301v-2q-113 0 -190 74q-76 73 -76 180q0 53 19 108q19 54 61 117l170 256h174l-172 -248q16 4 17 4h16q106 0 176 -67q72 -69 72 -168q0 -107 -76 -180q-77 -74 -191 -74zM205 -51v-8q0 -49 33 -82t81 -33q47 0 82 35q33 33 33 84t-33 84q-34 34 -82 34
q-49 0 -81 -32q-33 -33 -33 -82z" />
    <glyph glyph-name="seven.inferior" unicode="&#x2087;" horiz-adv-x="587" 
d="M375 289h-326v143h494v-123l-277 -598h-168z" />
    <glyph glyph-name="eight.inferior" unicode="&#x2088;" horiz-adv-x="667" 
d="M602 -80l-4 -4q0 -96 -74 -158q-73 -61 -194 -61q-122 0 -191 63q-73 64 -73 160q0 57 28 105q27 47 84 73q-39 26 -61 68q-21 41 -21 82q0 82 66 139q64 55 166 55q105 0 172 -55t67 -139q0 -43 -20 -82q-21 -41 -62 -68q57 -28 86 -73q31 -48 31 -105zM236 233l-5 -2
q3 -36 31 -61q29 -26 68 -23q38 3 69 27q28 25 25 62t-31 59t-69 22q-42 0 -66 -24q-25 -25 -22 -60zM207 -82v-2q0 -46 31 -74q36 -28 84 -28q52 0 86 30t34 74q0 52 -32 80q-36 31 -88 31q-53 0 -84 -31t-31 -80z" />
    <glyph glyph-name="nine.inferior" unicode="&#x2089;" horiz-adv-x="632" 
d="M315 444l-8 -2q115 0 191 -73q75 -72 75 -181q0 -56 -18 -108q-19 -54 -61 -117l-170 -256h-174l172 248q-4 -2 -15 -2h-16q-104 0 -174 67t-70 170q0 106 78 181q76 73 190 73zM422 190v-8q0 51 -33 84q-35 35 -82 35q-49 0 -82 -33q-32 -32 -32 -82t32 -82t82 -32
q48 0 82 34q33 33 33 84z" />
    <glyph glyph-name="franc" unicode="&#x20a3;" horiz-adv-x="1777" 
d="M399 0h-196v1440h817v-180h-621v-461h572v-178h-572v-621zM1655 870l-6 -2q-146 0 -232 -92t-86 -235v-543h-188v1034h180v-192q50 98 137 153q91 54 195 54h31q18 0 24 -3v-178q-28 4 -31 4h-24z" />
    <glyph glyph-name="Euro" unicode="&#x20ac;" horiz-adv-x="1368" 
d="M442 504v-6q0 -161 86 -250q87 -90 230 -90q144 0 227 86q84 90 84 241h197q0 -243 -142 -379q-141 -135 -370 -135t-369 140q-139 139 -139 387v4h-148v153h148v123h-148v154h148v6q0 248 139 387t369 139q229 0 370 -135q142 -136 142 -379h-197q0 152 -84 242
q-83 86 -227 86q-143 0 -230 -90q-86 -89 -86 -250v-4h371v-154h-371v-123h371v-153h-371z" />
    <glyph glyph-name="uni2113" unicode="&#x2113;" horiz-adv-x="897" 
d="M238 481l-156 -84v181l149 88v430q0 170 86 270q85 98 234 98q131 0 211 -80t80 -206q0 -150 -86 -283q-84 -130 -267 -254l-69 -47v-219q0 -133 37 -182q38 -50 118 -50q51 0 97 19q50 23 90 57v-170q-50 -38 -100 -55q-55 -19 -119 -19q-156 0 -232 91q-73 88 -73 294
v121zM557 1300l2 3q-62 0 -100 -50q-37 -49 -37 -139v-326l18 13q120 82 176 172q56 89 56 194q0 58 -31 97q-29 36 -84 36z" />
    <glyph glyph-name="trademark" unicode="&#x2122;" horiz-adv-x="1753" 
d="M438 662h-151v634h-217v144h583v-144h-215v-634zM879 662h-148v778h170l262 -522l269 522h161v-778h-147v499l-254 -499h-62l-251 507v-507z" />
    <glyph glyph-name="Omega" unicode="&#x2126;" horiz-adv-x="1669" 
d="M715 0l-590 4v178h346q-182 120 -274 271q-93 152 -93 331q0 289 209 486q208 196 516 196q311 0 519 -196t208 -486q0 -179 -92 -333q-92 -151 -274 -271h346v-178h-584v223q197 93 301 234q103 139 103 313q0 209 -152 358q-151 148 -373 148q-217 0 -368 -148
q-152 -149 -152 -358q0 -176 103 -315q104 -141 301 -234v-223z" />
    <glyph glyph-name="estimated" unicode="&#x212e;" horiz-adv-x="1656" 
d="M846 86l-2 -4q180 0 332 96q151 95 227 258h141q-108 -221 -291 -342q-185 -123 -407 -123q-310 0 -529 219t-219 527t221 526q227 219 531 219q323 0 528 -217q207 -219 207 -577h-1155v-424q84 -76 195 -117q112 -41 221 -41zM844 1348l-2 2q-112 0 -224 -41
q-105 -40 -192 -117v-410h821v420q-88 76 -186 109q-104 37 -217 37z" />
    <glyph glyph-name="uni2153" unicode="&#x2153;" horiz-adv-x="1472" 
d="M418 719h-150v577h-145l35 144h260v-721zM1157 1440h172l-1093 -1440h-173zM840 209l143 -8q3 -41 37 -68t80 -27q47 0 84 29q30 27 30 74q0 55 -32 80q-36 28 -92 28h-62v109h57q52 0 80 25q29 26 29 65q0 41 -25 66q-24 24 -67 24q-47 0 -74 -24q-28 -25 -31 -66h-149
q6 95 78 158q70 61 184 61q108 0 172 -55t64 -137q0 -55 -25 -97q-24 -40 -72 -65q57 -21 88 -68q31 -48 31 -110q0 -92 -74 -154q-73 -61 -192 -61q-117 0 -187 61q-69 60 -75 160z" />
    <glyph glyph-name="uni2154" unicode="&#x2154;" horiz-adv-x="1589" 
d="M623 719l-525 6v121l275 254q40 40 55 67q16 29 16 60q0 40 -26 63q-28 25 -74 25t-74 -31q-27 -30 -30 -74h-154q6 108 80 176t188 68q116 0 183 -61t67 -160q0 -60 -31 -117q-33 -56 -110 -127l-139 -127h299v-143zM1286 1446h172l-1093 -1440h-172zM969 215l143 -8
q3 -41 37 -68q33 -26 80 -26q48 0 84 28q30 27 30 74q0 55 -32 80q-37 29 -92 29h-62v108h57q52 0 80 25q29 26 29 65q0 41 -25 66q-24 24 -67 24q-47 0 -74 -24q-28 -25 -31 -66h-149q6 95 78 158q70 61 184 61q108 0 172 -55t64 -137q0 -54 -25 -96t-72 -66q57 -21 88 -68
q31 -48 31 -110q0 -92 -74 -154q-73 -61 -192 -61q-117 0 -187 61q-69 60 -75 160z" />
    <glyph glyph-name="uni2155" unicode="&#x2155;" horiz-adv-x="1468" 
d="M1157 1440h172l-1093 -1440h-173zM418 719h-150v577h-145l35 144h260v-721zM920 721l393 -4v-135h-277l-12 -140q24 10 43 13q28 4 43 4q116 0 180 -64q68 -65 68 -168q0 -104 -74 -172q-73 -67 -184 -67q-110 0 -185 63q-77 65 -86 162h154q6 -38 37 -63t74 -25
q46 0 82 31q32 28 32 75q0 50 -32 78q-36 31 -82 31q-23 0 -50 -10q-20 -9 -36 -31l-125 18z" />
    <glyph glyph-name="uni2156" unicode="&#x2156;" horiz-adv-x="1574" 
d="M623 719l-525 6v121l275 254q40 40 55 67q16 29 16 60q0 40 -26 63q-28 25 -74 25t-74 -31q-27 -30 -30 -74h-154q6 108 80 176t188 68q116 0 183 -61t67 -160q0 -60 -31 -117q-33 -56 -110 -127l-139 -127h299v-143zM1276 1446h172l-1094 -1440h-172zM1036 727l394 -4
v-135h-277l-12 -139q21 9 43 12q28 4 43 4q116 0 180 -64q68 -65 68 -168q0 -104 -74 -172q-73 -67 -184 -67q-110 0 -185 63q-77 65 -86 162h154q6 -38 37 -63t73 -25q46 0 82 31q33 29 33 76q0 48 -33 77q-36 31 -82 31q-22 0 -49 -10q-21 -9 -37 -31l-125 19z" />
    <glyph glyph-name="uni2157" unicode="&#x2157;" horiz-adv-x="1521" 
d="M1225 1440h172l-1094 -1440h-172zM987 721l393 -4v-135h-276l-12 -140q24 10 43 13q28 4 43 4q116 0 180 -64q67 -64 67 -168q0 -105 -73 -172t-185 -67q-109 0 -184 63q-77 65 -86 162h154q6 -39 36 -63q31 -25 74 -25q46 0 82 31q33 29 33 75q0 49 -33 78
q-36 31 -82 31q-22 0 -49 -10q-21 -9 -37 -31l-125 18zM82 924l143 -9q3 -40 37 -67t80 -27q47 0 84 29q31 28 31 74q0 54 -33 80q-36 28 -92 28h-62v109h58q53 0 80 24q28 25 28 66t-24 65q-25 25 -68 25q-46 0 -74 -25q-27 -24 -30 -65h-150q6 95 78 158q70 61 184 61
q108 0 172 -55t64 -138q0 -54 -25 -96q-24 -41 -71 -65q57 -21 88 -68q30 -46 30 -110q0 -93 -73 -154q-74 -62 -193 -62q-115 0 -186 62q-70 61 -76 160z" />
    <glyph glyph-name="uni2158" unicode="&#x2158;" horiz-adv-x="1562" 
d="M70 971l276 469h172l-274 -453h186v127l148 33v-160h57v-137h-57v-131h-148v131h-360v121zM1260 1440h172l-1094 -1440h-172zM1022 721l393 -4v-135h-276l-13 -140q24 10 43 13q28 4 43 4q117 0 181 -64q67 -64 67 -168t-74 -172q-73 -67 -184 -67q-109 0 -184 63
q-77 65 -86 162h153q6 -38 37 -63t74 -25q46 0 82 31q33 29 33 75q0 49 -33 78q-36 31 -82 31q-22 0 -49 -10q-21 -9 -37 -31l-125 18z" />
    <glyph glyph-name="uni2159" unicode="&#x2159;" horiz-adv-x="1423" 
d="M1057 -12v-2q-115 0 -191 73q-75 72 -75 181q0 56 18 108q19 54 61 117l170 256h174l-172 -248q16 4 17 4h16q106 0 176 -67q72 -69 72 -168q0 -108 -76 -181t-190 -73zM942 238v-9q0 -49 33 -82q32 -32 82 -32q47 0 82 35q32 32 32 83q0 52 -32 84q-35 35 -82 35
q-49 0 -82 -33t-33 -81zM418 709h-150v577h-145l35 144h260v-721zM1157 1430h172l-1093 -1440h-173z" />
    <glyph glyph-name="uni215A" unicode="&#x215a;" horiz-adv-x="1488" 
d="M1135 -12v-2q-115 0 -191 73t-76 181q0 53 19 108q19 54 61 117l170 256h174l-172 -248q16 4 17 4h16q106 0 176 -67q72 -69 72 -168q0 -108 -76 -181t-190 -73zM1020 238v-9q0 -49 33 -82q32 -32 82 -32q47 0 82 35q32 32 32 83q0 52 -32 84q-35 35 -82 35
q-49 0 -82 -33t-33 -81zM1233 1430h172l-1094 -1440h-172zM158 1430l393 -5v-135h-277l-12 -139q20 9 43 12q28 4 43 4q117 0 180 -63q68 -65 68 -168q0 -104 -74 -172t-184 -68q-108 0 -184 64q-77 65 -86 162h153q6 -39 37 -64q30 -24 74 -24q48 0 82 30q32 28 32 76
q0 50 -32 78q-36 31 -82 31q-20 0 -49 -11q-22 -10 -37 -30l-125 18z" />
    <glyph glyph-name="uni215B" unicode="&#x215b;" horiz-adv-x="1466" 
d="M1157 1440h172l-1093 -1440h-173zM418 719h-150v577h-145l35 144h260v-721zM1366 209l-4 -4q0 -96 -74 -158q-73 -61 -194 -61q-122 0 -191 63q-74 65 -74 160q0 54 29 104q28 48 84 74q-39 26 -61 68q-21 40 -21 82q0 82 66 139q64 55 166 55q105 0 172 -55t67 -139
q0 -43 -20 -82q-21 -41 -62 -68q56 -27 86 -74q31 -48 31 -104zM999 522l-4 -2q3 -36 31 -61q29 -26 68 -23q38 3 69 27q28 25 25 61q-3 38 -31 60t-70 22q-41 0 -65 -24q-26 -26 -23 -60zM971 207v-2q0 -47 30 -74q37 -29 84 -29q50 0 86 31q35 30 35 74q0 52 -32 80
q-34 30 -89 30q-54 0 -84 -30t-30 -80z" />
    <glyph glyph-name="uni215C" unicode="&#x215c;" horiz-adv-x="1525" 
d="M1229 1440h172l-1094 -1440h-172zM1438 209l-4 -4q0 -96 -74 -158q-73 -61 -195 -61q-121 0 -190 63q-74 65 -74 160q0 54 29 104q28 48 84 74q-41 27 -62 68q-20 39 -20 82q0 83 65 139q64 55 166 55q105 0 172 -55q68 -56 68 -139q0 -41 -21 -82q-22 -42 -61 -68
q56 -27 86 -74q31 -48 31 -104zM1071 522l-4 -2q3 -36 31 -61q29 -26 67 -23q39 3 70 27q28 25 25 61q-3 38 -31 60t-70 22q-41 0 -65 -24q-26 -26 -23 -60zM1042 207v-2q0 -46 31 -74q37 -29 84 -29q50 0 86 31q35 30 35 74q0 51 -33 80q-34 30 -88 30t-84 -30
q-31 -31 -31 -80zM78 920l143 -9q3 -40 37 -67q35 -27 80 -27q47 0 84 29q31 28 31 74q0 53 -33 79q-37 29 -92 29h-62v109h58q52 0 79 24q29 26 29 66q0 41 -24 65q-25 25 -68 25q-46 0 -74 -25q-27 -24 -30 -65h-150q6 94 78 157q71 62 184 62q108 0 172 -55t64 -138
q0 -54 -25 -96q-24 -40 -72 -65q57 -21 88 -68q31 -48 31 -111q0 -91 -74 -153t-192 -62q-115 0 -186 62q-70 61 -76 160z" />
    <glyph glyph-name="uni215D" unicode="&#x215d;" horiz-adv-x="1529" 
d="M1233 1440h172l-1094 -1440h-172zM158 1440l393 -4v-136h-277l-12 -139q24 10 43 13q28 4 43 4q116 0 180 -64q68 -65 68 -168q0 -104 -74 -172q-73 -67 -184 -67q-109 0 -184 63q-77 65 -86 162h153q6 -39 37 -64q30 -24 74 -24q48 0 82 30q32 28 32 76q0 50 -32 78
q-36 31 -82 31q-22 0 -49 -10q-21 -9 -37 -31l-125 18zM1434 205l-4 -4q0 -96 -74 -158q-73 -61 -195 -61q-121 0 -190 63q-74 65 -74 160q0 54 29 104q28 48 84 74q-41 27 -62 68q-20 39 -20 81q0 84 65 140q64 55 166 55q105 0 172 -55q68 -56 68 -140q0 -40 -21 -81
q-22 -42 -61 -68q56 -27 86 -74q31 -48 31 -104zM1067 518l-4 -2q3 -36 31 -61q29 -26 67 -23q39 3 70 27q27 24 24 61q-3 39 -30 60q-28 22 -70 22q-41 0 -65 -24q-26 -26 -23 -60zM1038 203v-2q0 -46 31 -74q37 -29 84 -29q50 0 86 31q35 30 35 74q0 51 -33 80
q-35 30 -88 30q-54 0 -84 -30q-31 -31 -31 -80z" />
    <glyph glyph-name="uni215E" unicode="&#x215e;" horiz-adv-x="1474" 
d="M469 1296h-326v144h494v-123l-277 -598h-167zM1159 1440h172l-1093 -1440h-172zM1378 209l-4 -4q0 -96 -74 -158q-73 -61 -194 -61q-122 0 -191 63q-73 64 -73 160q0 56 28 104t84 74q-39 26 -61 68q-21 40 -21 82q0 82 66 139q64 55 166 55q105 0 172 -55t67 -139
q0 -43 -20 -82q-22 -42 -61 -68q56 -27 86 -74q30 -46 30 -104zM1012 522l-4 -2q3 -37 30 -61q29 -26 68 -23t70 27q27 24 24 61q-3 38 -31 60t-69 22q-42 0 -66 -24q-25 -25 -22 -60zM983 207v-2q0 -46 31 -74q37 -29 84 -29q50 0 86 31q35 30 35 74q0 51 -33 80
q-34 30 -88 30t-84 -30q-31 -31 -31 -80z" />
    <glyph glyph-name="uni215F" unicode="&#x215f;" horiz-adv-x="1398" 
d="M449 719h-150v577h-145l34 144h261v-721zM1184 1440h172l-1094 -1440h-172z" />
    <glyph glyph-name="partialdiff" unicode="&#x2202;" horiz-adv-x="1243" 
d="M59 494l-6 -7q0 203 146 355q144 147 350 147q128 0 227 -45q105 -45 172 -131q-56 261 -225 399q-171 139 -449 154v174q426 -12 646 -270q221 -259 221 -719q0 -238 -158 -410q-156 -166 -387 -166q-223 0 -381 152q-156 150 -156 367zM950 487q0 143 -102 242
q-101 98 -252 98t-252 -98q-102 -99 -102 -242q0 -144 102 -243t252 -99t252 99t102 243z" />
    <glyph glyph-name="Delta" unicode="&#x2206;" horiz-adv-x="1331" 
d="M563 1440h209l498 -1295v-145h-1207v145zM662 1217l-383 -1041h768z" />
    <glyph glyph-name="product" unicode="&#x220f;" horiz-adv-x="1511" 
d="M467 0h-197v1260h-196v180h1364v-180h-197v-1260h-197v1260h-577v-1260z" />
    <glyph glyph-name="summation" unicode="&#x2211;" horiz-adv-x="1208" 
d="M78 1300v140h1026v-180h-768l403 -508l-409 -572h794v-180h-1040v129l446 610z" />
    <glyph glyph-name="minus" unicode="&#x2212;" horiz-adv-x="1167" 
d="M123 643v150h921v-150h-921z" />
    <glyph glyph-name="uni2215" unicode="&#x2215;" horiz-adv-x="307" 
d="M614 1440h172l-1093 -1440h-172z" />
    <glyph glyph-name="uni2219" unicode="&#x2219;" horiz-adv-x="866" 
d="M670 754q0 -94 -68 -162t-170 -68q-96 0 -164 68q-67 67 -67 162q0 101 65 166t166 65q99 0 170 -65q68 -65 68 -166z" />
    <glyph glyph-name="radical" unicode="&#x221a;" horiz-adv-x="1134" 
d="M651 0h-211l-247 752h-150v166h295l209 -668l371 1190h192z" />
    <glyph glyph-name="infinity" unicode="&#x221e;" horiz-adv-x="1632" 
d="M449 883l-5 -4q112 0 207 -62q97 -63 164 -176q66 117 160 180q92 62 201 62q144 0 245 -101q103 -103 103 -252q0 -150 -101 -251t-245 -101q-104 0 -201 66q-94 69 -168 190q-71 -126 -164 -192q-88 -64 -196 -64q-145 0 -246 101t-101 251q0 151 101 252t246 101z
M451 729v-4q-86 0 -144 -55q-57 -54 -57 -144q0 -89 57 -143q58 -55 144 -55q78 0 139 49q63 51 115 158q-43 89 -111 141q-71 53 -143 53zM1176 324v2q86 0 141 55t55 145q0 92 -57 146q-58 55 -141 55q-78 0 -142 -49q-62 -48 -112 -143q50 -106 114 -158q65 -53 142 -53z
" />
    <glyph glyph-name="integral" unicode="&#x222b;" horiz-adv-x="821" 
d="M504 1151l4 -1229q0 -200 -92 -295q-91 -94 -283 -94q-21 0 -67 4q-39 3 -64 10v166q33 -7 49 -8q18 -2 51 -2q114 0 166 55q54 60 54 170v1225q0 200 92 295q93 96 282 96q22 0 68 -4q42 -4 61 -10v-166q-65 10 -73 10h-31q-112 0 -164 -55q-53 -59 -53 -168z" />
    <glyph glyph-name="approxequal" unicode="&#x2248;" horiz-adv-x="1167" 
d="M623 981v-2q69 -34 104 -43q27 -8 68 -8q62 0 110 28q47 27 105 109v-170q-37 -58 -95 -92q-56 -33 -131 -33q-44 0 -88 12q-34 9 -112 47q-67 34 -107 43q-57 11 -80 11q-71 0 -129 -37t-104 -107v166q35 59 98 99q61 38 141 38q51 0 97 -12q49 -13 123 -49zM623 598v-2
q69 -34 104 -43q27 -8 68 -8q62 0 110 28q47 27 105 109v-170q-37 -58 -95 -92q-56 -33 -131 -33q-44 0 -88 12q-34 9 -112 47q-67 34 -107 43q-57 11 -80 11q-71 0 -129 -37t-104 -107v166q35 59 98 99q61 38 141 38q51 0 97 -12q49 -13 123 -49z" />
    <glyph glyph-name="notequal" unicode="&#x2260;" horiz-adv-x="1167" 
d="M412 254h-154l96 174h-231v152h317l152 274h-469v152h555l96 174h154l-97 -174h213v-152h-299l-151 -274h450v-152h-536z" />
    <glyph glyph-name="lessequal" unicode="&#x2264;" horiz-adv-x="1167" 
d="M983 317l-817 390v153l817 387v-182l-596 -283l596 -280v-185zM166 10v152h817v-152h-817z" />
    <glyph glyph-name="greaterequal" unicode="&#x2265;" horiz-adv-x="1167" 
d="M184 317v185l596 280l-596 283v182l817 -387v-153zM1001 10h-817v152h817v-152z" />
    <glyph glyph-name="lozenge" unicode="&#x25ca;" horiz-adv-x="1243" 
d="M559 -25l-489 773l493 716h117l496 -716l-492 -773h-125zM623 1257l-355 -509l355 -560l354 560z" />
    <glyph glyph-name="zero.denominator" unicode="&#xf655;" horiz-adv-x="698" 
d="M621 252h2q0 -126 -74 -197q-69 -69 -197 -69q-127 0 -196 69q-74 71 -74 197v221q0 123 74 191q73 67 194 67q124 0 197 -67q74 -68 74 -191v-221zM350 592h-4q-51 0 -86 -35q-33 -33 -33 -92v-209q0 -59 33 -92q35 -35 86 -35q55 0 90 35t35 92v209q0 59 -33 92
q-35 35 -88 35z" />
    <glyph glyph-name="one.denominator" unicode="&#xf656;" horiz-adv-x="436" 
d="M330 0h-150v578h-145l35 143h260v-721z" />
    <glyph glyph-name="two.denominator" unicode="&#xf657;" horiz-adv-x="659" 
d="M596 0l-524 6v121l274 254q39 39 55 68q17 31 17 59q0 39 -27 63q-28 25 -74 25q-45 0 -73 -31t-31 -73h-154q6 108 80 176q73 67 189 67q115 0 182 -61q68 -62 68 -160q0 -60 -31 -117q-32 -54 -111 -127l-139 -127h299v-143z" />
    <glyph glyph-name="three.denominator" unicode="&#xf658;" horiz-adv-x="655" 
d="M59 209l144 -8q3 -41 37 -68t79 -27q47 0 84 29q31 28 31 74q0 54 -33 80q-36 28 -92 28h-61v109h57q52 0 80 25q29 26 29 65q0 41 -25 66q-24 24 -67 24q-47 0 -74 -24q-28 -25 -31 -66h-149q6 96 77 158q70 61 185 61q108 0 172 -55q63 -54 63 -137q0 -56 -24 -97
q-24 -40 -72 -65q57 -21 88 -68q31 -48 31 -110q0 -92 -74 -154q-73 -61 -192 -61q-117 0 -187 61t-76 160z" />
    <glyph glyph-name="four.denominator" unicode="&#xf659;" horiz-adv-x="665" 
d="M47 252l277 469h172l-275 -453h187v127l147 33v-160h57v-137h-57v-131h-147v131h-361v121z" />
    <glyph glyph-name="five.denominator" unicode="&#xf65a;" horiz-adv-x="632" 
d="M133 721l393 -4v-135h-276l-12 -140q24 10 43 13q28 4 43 4q116 0 180 -64q67 -64 67 -168q0 -105 -73 -172t-185 -67q-109 0 -184 63q-77 65 -86 162h154q6 -39 36 -63q31 -25 74 -25q46 0 82 31q33 29 33 75q0 49 -33 78q-36 31 -82 31q-22 0 -49 -10q-21 -9 -37 -31
l-125 18z" />
    <glyph glyph-name="six.denominator" unicode="&#xf65b;" horiz-adv-x="632" 
d="M317 -12v-2q-114 0 -190 73t-76 181q0 53 19 108q19 54 61 117l170 256h174l-172 -248l16 4h17q106 0 176 -67q72 -69 72 -168q0 -108 -76 -181t-191 -73zM203 238v-9q0 -49 33 -82q32 -32 81 -32q47 0 82 35q33 33 33 83q0 51 -33 84q-35 35 -82 35q-48 0 -81 -33
t-33 -81z" />
    <glyph glyph-name="seven.denominator" unicode="&#xf65c;" horiz-adv-x="589" 
d="M377 578h-326v143h494v-123l-277 -598h-168z" />
    <glyph glyph-name="eight.denominator" unicode="&#xf65d;" horiz-adv-x="667" 
d="M602 209l-4 -4q0 -96 -74 -158q-73 -61 -194 -61q-122 0 -191 63q-73 64 -73 160q0 56 28 104t84 74q-39 26 -61 68q-21 41 -21 82q0 82 66 139q64 55 166 55q105 0 172 -55t67 -139q0 -43 -20 -82q-21 -41 -62 -68q56 -27 86 -74q31 -48 31 -104zM236 522l-5 -2
q3 -36 31 -61q29 -26 68 -23q38 3 69 27q28 25 25 61q-3 38 -31 60t-69 22q-42 0 -66 -24q-25 -25 -22 -60zM207 207v-2q0 -46 31 -74q37 -29 84 -29q50 0 86 31q34 30 34 74q0 52 -32 80q-34 30 -88 30t-84 -30q-31 -31 -31 -80z" />
    <glyph glyph-name="nine.denominator" unicode="&#xf65e;" horiz-adv-x="632" 
d="M315 733l-8 -2q114 0 191 -74q75 -72 75 -180q0 -55 -18 -108q-19 -54 -61 -117l-170 -256h-174l172 248q-4 -2 -15 -2h-16q-104 0 -174 67t-70 170q0 105 78 180q77 74 190 74zM422 479v-8q0 51 -33 84q-35 35 -82 35q-49 0 -82 -33q-32 -32 -32 -82t32 -82
q33 -33 82 -33q47 0 82 35q33 33 33 84z" />
    <glyph glyph-name="zero.numerator" unicode="&#xf661;" horiz-adv-x="698" 
d="M621 971h2q0 -126 -74 -197q-69 -69 -197 -69q-127 0 -196 69q-74 71 -74 197v221q0 122 74 190t194 68q123 0 197 -68t74 -190v-221zM350 1311h-4q-51 0 -86 -35q-33 -33 -33 -92v-209q0 -59 33 -92q35 -35 86 -35q55 0 90 35t35 92v209q0 59 -33 92q-35 35 -88 35z" />
    <glyph glyph-name="one.numerator" unicode="&#xf662;" horiz-adv-x="434" 
d="M328 719h-150v577h-145l35 144h260v-721z" />
    <glyph glyph-name="two.numerator" unicode="&#xf663;" horiz-adv-x="663" 
d="M598 719l-524 6v121l274 254q40 40 55 67q17 31 17 60q0 39 -27 63q-28 25 -74 25q-45 0 -73 -31t-31 -74h-154q6 108 80 176t189 68t182 -61q68 -62 68 -160q0 -60 -31 -117q-32 -54 -111 -127l-139 -127h299v-143z" />
    <glyph glyph-name="three.numerator" unicode="&#xf664;" horiz-adv-x="655" 
d="M59 928l144 -8q3 -41 37 -68t79 -27q47 0 84 29q31 28 31 74q0 54 -33 80q-36 28 -92 28h-61v109h57q53 0 80 24q29 26 29 66t-25 65t-67 25q-46 0 -74 -25t-31 -65h-149q6 96 77 158q70 61 185 61q108 0 172 -55q63 -54 63 -137q0 -56 -24 -97q-24 -40 -72 -65
q57 -21 88 -68q31 -48 31 -110q0 -92 -74 -154q-73 -61 -192 -61q-117 0 -187 61t-76 160z" />
    <glyph glyph-name="four.numerator" unicode="&#xf665;" horiz-adv-x="665" 
d="M47 971l277 469h172l-275 -453h187v127l147 33v-160h57v-137h-57v-131h-147v131h-361v121z" />
    <glyph glyph-name="five.numerator" unicode="&#xf666;" horiz-adv-x="630" 
d="M131 1440l393 -4v-136h-276l-12 -139q24 10 43 13q28 4 43 4q116 0 180 -64q67 -64 67 -168q0 -105 -73 -172t-185 -67q-109 0 -184 63q-77 65 -86 162h154q6 -40 36 -64t74 -24q47 0 82 30q33 29 33 76q0 49 -33 78q-36 31 -82 31q-22 0 -49 -10q-21 -9 -37 -31l-125 18
z" />
    <glyph glyph-name="six.numerator" unicode="&#xf667;" horiz-adv-x="634" 
d="M319 707v-2q-114 0 -190 73t-76 180q0 54 19 109q19 54 61 117l170 256h174l-172 -248q16 4 17 4h16q105 0 176 -68q72 -69 72 -167q0 -108 -76 -181t-191 -73zM205 956v-8q0 -49 33 -82q32 -32 81 -32q48 0 82 34q33 33 33 84t-33 84q-35 35 -82 35q-48 0 -81 -33
t-33 -82z" />
    <glyph glyph-name="seven.numerator" unicode="&#xf668;" horiz-adv-x="587" 
d="M375 1296h-326v144h494v-123l-277 -598h-168z" />
    <glyph glyph-name="eight.numerator" unicode="&#xf669;" horiz-adv-x="667" 
d="M602 928l-4 -4q0 -96 -74 -158q-73 -61 -194 -61q-122 0 -191 63q-73 64 -73 160q0 56 28 104t84 74q-39 26 -61 68q-21 40 -21 81q0 83 66 140q64 55 166 55q105 0 172 -55t67 -140q0 -42 -20 -81q-21 -41 -62 -68q56 -27 86 -74q31 -48 31 -104zM236 1241l-5 -2
q3 -36 31 -61q29 -26 68 -23q38 3 69 27q28 25 25 61q-3 38 -31 60t-69 22t-66 -25t-22 -59zM207 926v-2q0 -46 31 -74q37 -29 84 -29q50 0 86 31q34 30 34 74q0 52 -32 80q-34 30 -88 30t-84 -30q-31 -31 -31 -80z" />
    <glyph glyph-name="nine.numerator" unicode="&#xf66a;" horiz-adv-x="634" 
d="M315 1452l-8 -2q114 0 191 -74q75 -72 75 -180q0 -56 -18 -109q-18 -52 -61 -116l-170 -256h-174l172 248q-4 -2 -15 -2h-16q-104 0 -174 67t-70 170q0 105 78 180q77 74 190 74zM422 1198v-8q0 51 -33 84q-35 35 -82 35q-49 0 -82 -33q-32 -32 -32 -82t32 -82
q33 -33 82 -33q47 0 82 35q33 33 33 84z" />
    <glyph glyph-name="commaaccent" unicode="&#xf6c3;" horiz-adv-x="348" 
d="M274 -279l-92 -233h-106l78 180q-40 9 -64 39t-24 68q0 48 30 78t78 30q50 0 80 -30q31 -31 31 -78q0 -19 -2 -25q-6 -24 -9 -29z" />
    <glyph glyph-name="uniF8FF" unicode="&#xf8ff;" horiz-adv-x="2945" 
d="M1518 1071v-74h63q6 0 18 -4q7 -3 7 -16v-55q0 -12 -7 -19q-6 -6 -18 -6h-63v-158q0 -17 12 -26q8 -8 37 -8h20q12 0 19 -7q6 -6 6 -18v-55q0 -13 -6 -19t-19 -6h-39q-80 0 -123 29q-36 26 -36 96v172h-35q-13 0 -19 6t-6 19v51q0 2 4 14q2 7 19 10l32 2h2v74q0 12 7 19
q6 6 18 6h80q14 0 20 -6q7 -7 7 -21zM717 999l82 -4q12 0 18 -6t6 -18v-13q34 25 62 35q37 11 59 11q33 0 62 -13q28 -13 43 -39q43 34 63 41q32 13 68 13q53 0 84 -31q30 -30 30 -80v-270q0 -13 -6 -19t-20 -6h-78q-15 0 -21 6t-6 19v237q0 21 -6 27t-22 6q-23 0 -39 -8
q-13 -7 -39 -25v-239q0 -13 -6 -19t-19 -6h-78q-14 0 -20 6t-6 19v237q0 21 -6 27t-25 6q-23 0 -39 -8q-18 -7 -37 -21v-239q0 -7 -4 -19q-3 -6 -16 -6h-84q-13 0 -19 6t-6 19v350q0 12 6 18t19 6zM2087 995h74q14 0 20 -6t6 -18l2 -15q33 26 60 35q33 10 61 10q58 0 88 -30
q31 -31 31 -90v-164q0 -58 -31 -94q-29 -33 -88 -33q-28 0 -61 10q-28 9 -56 31v-170q0 -13 -6 -19t-18 -6h-82q-13 0 -19 6t-6 19v510q0 12 6 18t19 6zM463 1004l-2 -3q83 0 127 -30q43 -30 43 -94v-89q0 -12 -6 -18t-19 -6h-190v-47q0 -18 12 -27q8 -8 37 -8q20 0 37 10
q12 9 12 29v2q0 12 6 18q7 7 19 7h65q12 0 19 -7q6 -6 6 -18v-6q0 -64 -41 -94q-42 -31 -123 -31q-85 0 -129 33q-45 33 -45 94v162q0 62 43 92q45 31 129 31zM2660 1001l-6 -2q84 0 127 -30t43 -95v-88q0 -12 -6 -18t-18 -6h-193v-47q0 -18 12 -27q8 -8 37 -8q20 0 37 10
q12 9 12 29v2q0 11 7 18q6 6 18 6h66q12 0 18 -6t6 -18v-6q0 -65 -39 -94q-42 -31 -123 -31q-88 0 -127 33q-43 34 -43 94v162q0 62 43 92t129 30zM1757 969l35 -146q6 -14 10 -45q1 -6 2 -13l1.5 -10.5t0.5 -6.5q3 3 9 26q3 8 6 24t6 23l49 148q3 16 10 18q12 4 17 4h75
q15 0 21 -6q6 -9 4 -16l-172 -510q-3 -11 -10 -17q-6 -6 -17 -6h-57q-15 0 -21 6t-2 17l33 121l-133 389q-4 11 2 16q6 6 23 6h82q4 0 16 -4q7 -2 10 -18zM444 903v-4q-28 0 -36 -8q-13 -10 -13 -27v-22h99v22q0 19 -13 29q-17 10 -37 10zM2644 899l2 -4q-29 0 -37 -8
q-12 -9 -12 -27v-22h96v22q0 20 -12 29q-17 10 -37 10zM2251 686l2 2q18 0 26 8q9 9 9 27v127q0 16 -9 22q-11 7 -26 7q-13 0 -31 -7q-9 -2 -45 -24v-129q10 -5 21.5 -11t17.5 -9.5t10 -6.5q12 -6 25 -6zM1149 459l-4 -84h96q6 0 6 -2v-6v-17q0 -6 -2 -8t-6 -2h-96v-254
q0 -33 24 -51q25 -19 78 -19h12q5 0 7 -2q4 -4 4 -6v-14q0 -4 -2 -6t-6 -2h-19q-66 0 -102 22q-31 22 -31 74v258h-51q-4 0 -6 2t-2 8v15q0 4 2 6l6 6h51v84v8q0 2 6 2h23l6 -6zM834 383l-9 2q69 0 105 -25q35 -24 35 -73v-101q0 -4 -2 -6t-7 -2h-233v-98q0 -33 25 -49
q31 -17 77 -17q43 0 74 17q25 16 25 49v16q0 4 2 6t12 2h18q7 0 9 -2t2 -6v-18q0 -52 -35 -76q-36 -25 -105 -25q-68 0 -104 25q-35 24 -35 74v209q0 49 37 73q39 25 109 25zM313 371l6 -43q38 27 68 37q35 12 68 12q52 0 80 -25t28 -67v-295q0 -4 -2 -6t-6 -2h-23h-6
q-2 0 -2 10v287q0 33 -20 47q-22 16 -62 16q-36 0 -71 -12t-56 -33v-303q0 -4 -2 -6t-6 -2h-22q-7 0 -9 2t-2 8v375q0 4 2 6t9 2h18q6 0 8 -2t2 -6zM831 342h-2q-46 0 -75 -16q-25 -16 -25 -50v-73h201v73q0 34 -25 50q-29 16 -74 16zM145 49v-61q0 -6 -2 -8q-3 -3 -8 -3
h-22q-4 0 -7 3q-2 2 -2 8v61q0 6 2 8t7 2h22q6 0 8 -2t2 -8z" />
    <glyph glyph-name="f_f" unicode="&#xfb00;" horiz-adv-x="1425" 
d="M428 0l-188 -4v866h-179v168h179v119q0 185 96 289q93 100 276 100q22 0 68 -4q44 -4 68 -10v-166q-20 5 -58 10q-32 4 -45 4q-113 0 -166 -53q-51 -51 -51 -170v-117h510v119q0 185 96 289q93 100 277 100q21 0 67 -4q44 -4 68 -10v-166q-21 6 -57 10q-32 4 -46 4
q-112 0 -165 -53q-52 -52 -52 -170v-117h269v-168h-269v-866h-188v866h-510v-866z" />
    <glyph glyph-name="fi" unicode="&#xfb01;" horiz-adv-x="1255" 
d="M428 0l-188 -2v866h-179v168h179v119q0 185 96 289q93 100 276 100q43 0 66 -2q45 -4 57 -8v-166q-6 3 -43 8q-14 2 -47 2q-113 0 -166 -53q-51 -51 -51 -170v-117h268v-168h-268v-866zM858 1362h-4q0 55 37 92t96 37t96 -37t37 -92t-37 -92t-94 -37t-94 37t-37 92z
M1081 -2h-188v1034h188v-1034z" />
    <glyph glyph-name="fl" unicode="&#xfb02;" horiz-adv-x="1255" 
d="M428 0l-188 -2v866h-179v168h179v119q0 185 96 289q93 100 276 100q43 0 66 -2q45 -4 57 -8v-166q-6 3 -43 8q-14 2 -47 2q-113 0 -166 -53q-51 -51 -51 -170v-117h268v-168h-268v-866zM897 1516h188v-1518h-188v1518z" />
    <glyph glyph-name="f_f_i" unicode="&#xfb03;" horiz-adv-x="1953" 
d="M428 0l-188 -4v866h-179v168h179v119q0 185 96 289q93 100 276 100q22 0 68 -4q44 -4 68 -10v-166q-20 5 -58 10q-32 4 -45 4q-113 0 -166 -53q-51 -51 -51 -170v-117h510v119q0 185 96 289q93 100 277 100q42 0 65 -2q46 -4 58 -8v-166q-7 3 -43 8q-14 2 -48 2
q-112 0 -165 -53q-52 -52 -52 -170v-117h269v-168h-269v-866h-188v866h-510v-866zM1556 1360h-4q0 55 37 92t97 37q59 0 96 -37t37 -92t-37 -92t-94 -37q-58 0 -95 37t-37 92zM1780 -4h-189v1034h189v-1034z" />
    <glyph glyph-name="f_f_l" unicode="&#xfb04;" horiz-adv-x="1953" 
d="M428 0l-188 -4v866h-179v168h179v119q0 185 96 289q93 100 276 100q22 0 68 -4q44 -4 68 -10v-166q-20 5 -58 10q-32 4 -45 4q-113 0 -166 -53q-51 -51 -51 -170v-117h510v119q0 185 96 289q93 100 277 100q42 0 65 -2q46 -4 58 -8v-166q-7 3 -43 8q-14 2 -48 2
q-112 0 -165 -53q-52 -52 -52 -170v-117h269v-168h-269v-866h-188v866h-510v-866zM1595 1513h189v-1517h-189v1517z" />
    <glyph glyph-name="longs_t" unicode="&#xfb05;" horiz-adv-x="1339" 
d="M354 0h-188v1153q0 200 92 295q93 96 283 96q21 0 67 -4q39 -3 64 -10v-166q-68 10 -74 10h-25q-113 0 -165 -55q-54 -60 -54 -168v-1151zM786 1034l2 324l189 45v-367h270v-168h-270v-532q0 -111 39 -150q40 -43 129 -43q35 0 76 13q38 14 77 39v-168q-44 -27 -92 -39
q-50 -13 -100 -13q-160 0 -240 86t-80 261v544h-174v168h174z" />
    <glyph glyph-name="zero.tab" unicode="&#xff10;" horiz-adv-x="1228" 
d="M1130 500v-6q0 -250 -141 -388q-137 -137 -375 -137q-228 0 -374 140q-142 139 -142 387v442q0 246 142 385q145 139 374 139q238 0 375 -137q141 -138 141 -383v-442zM612 1272v-8q-148 0 -233 -88q-86 -89 -86 -248v-441q0 -158 86 -247q85 -88 233 -88q149 0 236 90
q86 89 86 250v440q0 161 -86 250q-87 90 -236 90z" />
    <glyph glyph-name="one.tab" unicode="&#xff11;" horiz-adv-x="1228" 
d="M1073 0h-872v178h336v1082h-310l47 180h459v-1262h340v-178z" />
    <glyph glyph-name="two.tab" unicode="&#xff12;" horiz-adv-x="1228" 
d="M1128 0l-1019 -6v151l589 564q102 99 142 172q41 77 41 151q0 108 -74 176t-197 68q-135 0 -217 -82q-83 -83 -92 -217h-201q9 216 152 350q141 135 369 135q205 0 337 -114q129 -114 129 -299q0 -124 -55 -228q-54 -99 -213 -252l-411 -389h720v-180z" />
    <glyph glyph-name="three.tab" unicode="&#xff13;" horiz-adv-x="1228" 
d="M104 410h195q6 -108 92 -179q89 -71 215 -71q131 0 213 76q84 78 84 190q0 119 -80 190q-84 72 -215 72h-151v146h157q108 0 179 65q67 64 67 170q0 96 -74 158q-73 61 -186 61q-121 0 -190 -63q-75 -63 -78 -166h-197q6 175 137 291t338 116q206 0 324 -106
q123 -108 123 -264q0 -110 -53 -199q-54 -86 -154 -131q126 -44 190 -137q66 -97 66 -228q0 -181 -137 -303q-138 -123 -357 -123q-217 0 -358 123q-141 126 -150 312z" />
    <glyph glyph-name="four.tab" unicode="&#xff14;" horiz-adv-x="1228" 
d="M66 461l587 979h228l-580 -953h510v324l190 45v-369h154v-176h-154v-311h-190v311h-745v150z" />
    <glyph glyph-name="five.tab" unicode="&#xff15;" horiz-adv-x="1228" 
d="M266 1440h760v-180h-600l-39 -400q49 29 119 47q80 17 129 17q219 0 348 -129t129 -340q0 -206 -141 -344q-138 -138 -355 -138q-211 0 -358 129q-148 130 -160 326h201q9 -117 96 -195q89 -77 211 -77q132 0 221 86q91 88 91 213q0 131 -87 215q-82 82 -223 82
q-82 0 -149 -31q-65 -30 -105 -88l-159 18z" />
    <glyph glyph-name="six.tab" unicode="&#xff16;" horiz-adv-x="1228" 
d="M629 -25v-4q-211 0 -363 146q-147 144 -147 354q0 101 37 211q38 112 104 209l379 549h229l-379 -527q47 17 86 25q36 8 99 8q193 0 332 -139q137 -137 137 -338q0 -206 -150 -350t-364 -144zM311 465q0 -133 92 -225q93 -93 228 -93q134 0 227 93q92 92 92 225
q0 128 -92 217q-88 88 -227 88q-140 0 -228 -88q-92 -89 -92 -217z" />
    <glyph glyph-name="seven.tab" unicode="&#xff17;" horiz-adv-x="1228" 
d="M870 1260h-737v180h963v-156l-611 -1284h-219z" />
    <glyph glyph-name="eight.tab" unicode="&#xff18;" horiz-adv-x="1228" 
d="M1114 408l4 -2q0 -184 -139 -308q-138 -123 -361 -123q-221 0 -362 123t-141 308q0 117 61 215q60 97 172 153q-82 52 -129 135q-45 80 -45 178q0 163 123 271q126 108 317 108q192 0 318 -108q123 -108 123 -268q0 -99 -45 -179q-46 -83 -129 -135q112 -56 172 -153
q61 -98 61 -215zM358 1071v-2q0 -95 74 -160q77 -65 191 -65q117 0 188 65q72 66 72 160t-72 160q-71 65 -188 65q-122 0 -191 -63q-74 -65 -74 -160zM311 412l4 -6q0 -114 86 -191q82 -76 222 -76q131 0 221 78q86 77 86 191q0 117 -86 194q-90 78 -223 78q-142 0 -224 -76
q-86 -77 -86 -192z" />
    <glyph glyph-name="nine.tab" unicode="&#xff19;" horiz-adv-x="1228" 
d="M600 1464v-2q220 0 363 -143q147 -144 147 -352q0 -101 -37 -211q-38 -112 -104 -209l-379 -549h-230l379 526q-42 -15 -86 -24q-36 -8 -98 -8q-193 0 -332 139q-137 137 -137 338q0 206 150 350q151 145 364 145zM918 969q0 132 -93 225q-92 92 -227 92t-227 -92
t-92 -225q0 -128 92 -217q88 -88 227 -88t227 88q93 90 93 217z" />
    <glyph glyph-name="Lgeminada" horiz-adv-x="2152" 
d="M1040 0h-850v1440h197v-1260h653v-180zM971 737l-4 -6q0 -57 -41 -98q-39 -39 -103 -39q-57 0 -98 41t-41 98q0 62 41 103t102 41q64 0 103 -39q41 -41 41 -101zM2114 -6h-850v1440h196v-1260h654v-180z" />
    <glyph glyph-name="lgeminada" horiz-adv-x="1277" 
d="M170 1518h188v-1518h-188v1518zM782 737l-4 -6q0 -57 -41 -98q-39 -39 -102 -39q-57 0 -98 41t-41 98q0 62 41 103t102 41q63 0 102 -39q41 -41 41 -101zM915 1511h189v-1517h-189v1517z" />
    <glyph glyph-name="caron.salt" horiz-adv-x="403" 
d="M307 1331l-94 -252h-121l90 230q-39 9 -65 41q-25 31 -25 71q0 51 35 86t86 35t86 -35t35 -84q0 -16 -6 -34z" />
    <glyph glyph-name="commaaccent.salt" horiz-adv-x="405" 
d="M80 1362l92 231h111l-80 -182q37 -8 59 -37q23 -30 23 -65q0 -47 -31 -78t-78 -31q-49 0 -80 31q-30 30 -30 78q0 2 4 22q5 18 10 31z" />
    <glyph glyph-name="acute.case" horiz-adv-x="616" 
d="M289 1567h-180l165 297h183z" />
    <glyph glyph-name="grave.case" horiz-adv-x="616" 
d="M270 1567l-168 297h183l164 -297h-179z" />
    <glyph glyph-name="hungarumlaut.case" horiz-adv-x="681" 
d="M254 1864h172l-147 -297h-170zM508 1864h172l-148 -297h-172z" />
    <glyph glyph-name="circumflex.case" horiz-adv-x="706" 
d="M68 1567l237 297h168l240 -297h-168l-154 190l-158 -190h-165z" />
    <glyph glyph-name="caron.case" horiz-adv-x="706" 
d="M63 1864h166l158 -191l154 191h168l-240 -297h-168z" />
    <glyph glyph-name="breve.case" horiz-adv-x="757" 
d="M389 1548l4 -2q-131 0 -215 84q-82 82 -82 209h140q0 -77 40 -123q41 -47 115 -47t115 47t41 123h139q0 -127 -82 -209t-215 -82z" />
    <glyph glyph-name="tilde.case" horiz-adv-x="794" 
d="M467 1751l-4 -2l43 -37q8 -8 24 -8q28 0 41 25q13 24 23 88h127q-9 -126 -55 -187t-136 -61q-45 0 -73 14q-32 14 -80 62q-22 29 -43 41q-17 10 -35 10q-36 0 -55 -29q-19 -34 -27 -92h-127q9 125 62 190q52 64 151 64q32 0 78 -17q37 -15 86 -61z" />
    <glyph glyph-name="macron.case" horiz-adv-x="770" 
d="M653 1622h-551v129h551v-129z" />
    <glyph glyph-name="dieresis.case" horiz-adv-x="677" 
d="M317 1700h-2q0 -48 -30 -78q-31 -31 -76 -31t-76 31t-31 78t31 78q30 30 78 30q46 0 76 -30t30 -78zM614 1700l-4 -4q0 -46 -30 -76q-31 -31 -76 -31t-76 31t-31 78t31 78q30 30 78 30t78 -30t30 -76z" />
    <glyph glyph-name="dotaccent.case" horiz-adv-x="567" 
d="M342 1708q0 -50 -37 -84q-41 -35 -86 -35q-49 0 -84 35t-35 84q0 45 35 86q34 37 84 37q49 0 86 -37t37 -86z" />
    <glyph glyph-name="ring.case" horiz-adv-x="675" 
d="M504 1749l-2 -4q0 -82 -62 -141q-58 -58 -147 -58q-88 0 -148 60q-59 59 -59 141q0 83 61 141q66 60 148 60q89 0 147 -58q62 -59 62 -141zM203 1745l-2 -4q0 -42 26 -68t68 -26q39 0 67 28q29 29 29 68q0 41 -26 67q-29 29 -68 29q-41 0 -68 -27q-26 -26 -26 -67z" />
    <glyph glyph-name="G.alt" horiz-adv-x="1636" 
d="M1321 569l-504 -2v154h715v-31q0 -328 -197 -522q-201 -195 -516 -195q-309 0 -518 215t-209 531q0 309 213 528q212 215 529 215q247 0 442 -139q193 -138 260 -367h-215q-63 150 -193 234q-133 86 -294 86q-229 0 -381 -162q-154 -165 -154 -395q0 -241 150 -397
q151 -160 374 -160q202 0 332 106q132 108 166 301z" />
    <glyph glyph-name="Gcircumflex.alt" horiz-adv-x="1636" 
d="M496 1567l237 297h168l240 -297h-168l-154 190l-157 -190h-166zM1321 569l-504 -2v154h715v-31q0 -328 -197 -522q-201 -195 -516 -195q-309 0 -518 215t-209 531q0 309 213 528q212 215 529 215q247 0 442 -139q193 -138 260 -367h-215q-63 150 -193 234
q-133 86 -294 86q-229 0 -381 -162q-154 -165 -154 -395q0 -241 150 -397q151 -160 374 -160q202 0 332 106q132 108 166 301z" />
    <glyph glyph-name="Gbreve.alt" horiz-adv-x="1636" 
d="M1321 569l-504 -2v154h715v-31q0 -328 -197 -522q-201 -195 -516 -195q-309 0 -518 215t-209 531q0 309 213 528q212 215 529 215q247 0 442 -139q193 -138 260 -367h-215q-63 150 -193 234q-133 86 -294 86q-229 0 -381 -162q-154 -165 -154 -395q0 -241 150 -397
q151 -160 374 -160q202 0 332 106q132 108 166 301zM813 1546l4 -2q-131 0 -215 84q-82 82 -82 209h139q0 -76 41 -123t115 -47t115 47t41 123h139q0 -127 -82 -209t-215 -82z" />
    <glyph glyph-name="Gdotaccent.alt" horiz-adv-x="1636" 
d="M936 1708q0 -50 -37 -84q-41 -35 -86 -35q-49 0 -84 35t-35 84q0 45 35 86q34 37 84 37q49 0 86 -37t37 -86zM1321 569l-504 -2v154h715v-31q0 -328 -197 -522q-201 -195 -516 -195q-309 0 -518 215t-209 531q0 309 213 528q212 215 529 215q247 0 442 -139
q193 -138 260 -367h-215q-63 150 -193 234q-133 86 -294 86q-229 0 -381 -162q-154 -165 -154 -395q0 -241 150 -397q151 -160 374 -160q202 0 332 106q132 108 166 301z" />
    <glyph glyph-name="uni0122.alt" horiz-adv-x="1636" 
d="M918 -295l-93 -233h-106l78 180q-40 9 -64 39t-24 67q0 48 30 78q31 31 78 31q49 0 80 -31t31 -78q0 -18 -2 -24q-7 -27 -8 -29zM1325 567l-504 -2v154h715v-31q0 -328 -197 -522q-201 -195 -516 -195q-309 0 -518 215t-209 531q0 309 213 528q212 215 529 215
q247 0 442 -139q193 -138 260 -367h-215q-63 150 -192 234q-133 86 -295 86q-229 0 -381 -162q-154 -165 -154 -395q0 -242 150 -398q150 -159 374 -159q202 0 332 106q132 108 166 301z" />
    <glyph glyph-name="a.alt" 
d="M606 -25l-6 2q-223 0 -371 154q-147 153 -147 385q0 234 149 389q150 156 377 156q119 0 228 -53q107 -55 174 -152v180h178v-1034h-178v182q-68 -95 -174 -153q-106 -56 -230 -56zM274 518q0 -156 105 -264q104 -107 260 -107t260 107q105 108 105 264t-105 264
q-104 107 -260 107t-260 -107q-105 -108 -105 -264z" />
    <glyph glyph-name="agrave.alt" 
d="M606 -25l-6 2q-223 0 -371 154q-147 153 -147 385q0 234 149 389q150 156 377 156q119 0 228 -53q107 -55 174 -152v180h178v-1034h-178v182q-68 -95 -174 -153q-106 -56 -230 -56zM274 518q0 -156 105 -264q104 -107 260 -107t260 107q105 108 105 264t-105 264
q-104 107 -260 107t-260 -107q-105 -108 -105 -264zM569 1174l-168 296h183l164 -296h-179z" />
    <glyph glyph-name="aacute.alt" 
d="M758 1171h-180l165 297h183zM606 -25l-6 2q-223 0 -371 154q-147 153 -147 385q0 234 149 389q150 156 377 156q119 0 228 -53q107 -55 174 -152v180h178v-1034h-178v182q-68 -95 -174 -153q-106 -56 -230 -56zM274 518q0 -156 105 -264q104 -107 260 -107t260 107
q105 108 105 264t-105 264q-104 107 -260 107t-260 -107q-105 -108 -105 -264z" />
    <glyph glyph-name="acircumflex.alt" 
d="M344 1171l238 297h168l239 -297h-168l-153 191l-158 -191h-166zM606 -25l-6 2q-223 0 -371 154q-147 153 -147 385q0 234 149 389q150 156 377 156q119 0 228 -53q107 -55 174 -152v180h178v-1034h-178v182q-68 -95 -174 -153q-106 -56 -230 -56zM274 518
q0 -156 105 -264q104 -107 260 -107t260 107q105 108 105 264t-105 264q-104 107 -260 107t-260 -107q-105 -108 -105 -264z" />
    <glyph glyph-name="atilde.alt" 
d="M606 -25l-6 2q-223 0 -371 154q-147 153 -147 385q0 234 149 389q150 156 377 156q119 0 228 -53q107 -55 174 -152v180h178v-1034h-178v182q-68 -95 -174 -153q-106 -56 -230 -56zM274 518q0 -156 105 -264q104 -107 260 -107t260 107q105 108 105 264t-105 264
q-104 107 -260 107t-260 -107q-105 -108 -105 -264zM719 1366l-4 -2l43 -37q8 -8 24 -8q29 0 41 24q13 23 23 89h127q-9 -126 -55 -187t-136 -61q-45 0 -73 14q-32 14 -80 62q-21 27 -43 40q-18 11 -35 11q-36 0 -55 -29q-19 -34 -27 -92h-127q9 126 61 190t152 64
q32 0 78 -17q37 -15 86 -61z" />
    <glyph glyph-name="adieresis.alt" 
d="M625 1309h-2q0 -47 -31 -78t-76 -31t-76 31q-30 30 -30 78q0 47 30 77q31 31 78 31q45 0 76 -31t31 -77zM922 1309l-4 -4q0 -45 -31 -76t-76 -31t-76 31q-30 30 -30 78q0 47 30 77q31 31 78 31t78 -31t31 -75zM600 -29l-6 2q-223 0 -371 154q-147 153 -147 385
q0 234 149 389q150 156 377 156q118 0 227 -53q109 -56 175 -152v180h178v-1034h-178v182q-67 -94 -175 -153q-106 -56 -229 -56zM268 514q0 -156 105 -264q104 -107 260 -107t260 107t104 264t-104 264t-260 107t-260 -107q-105 -108 -105 -264z" />
    <glyph glyph-name="aring.alt" 
d="M872 1356l-2 -4q0 -84 -61 -142q-57 -57 -147 -57q-89 0 -148 59t-59 142t61 141q65 59 148 59q90 0 147 -57q61 -58 61 -141zM571 1352l-2 -4q0 -41 27 -68t68 -27q38 0 67 29t29 68q0 40 -27 67q-29 29 -67 29q-41 0 -68 -27t-27 -67zM602 -33l-6 2q-223 0 -371 154
q-147 153 -147 385q0 234 149 389q150 156 377 156q116 0 227 -54q110 -56 175 -151v180h178v-1034h-178v182q-67 -94 -175 -153q-106 -56 -229 -56zM270 510q0 -156 105 -264q104 -107 260 -107t260 107t104 264t-104 264t-260 107t-260 -107q-105 -108 -105 -264z" />
    <glyph glyph-name="amacron.alt" 
d="M606 -25l-6 2q-223 0 -371 154q-147 153 -147 385q0 234 149 389q150 156 377 156q119 0 228 -53q107 -55 174 -152v180h178v-1034h-178v182q-68 -95 -174 -153q-106 -56 -230 -56zM274 518q0 -156 105 -264q104 -107 260 -107t260 107q105 108 105 264t-105 264
q-104 107 -260 107t-260 -107q-105 -108 -105 -264zM936 1233h-551v129h551v-129z" />
    <glyph glyph-name="abreve.alt" 
d="M606 -25l-6 2q-223 0 -371 154q-147 153 -147 385q0 234 149 389q150 156 377 156q119 0 228 -53q107 -55 174 -152v180h178v-1034h-178v182q-68 -95 -174 -153q-106 -56 -230 -56zM274 518q0 -156 105 -264q104 -107 260 -107t260 107q105 108 105 264t-105 264
q-104 107 -260 107t-260 -107q-105 -108 -105 -264zM662 1157l4 -2q-131 0 -215 84q-82 82 -82 209h139q0 -76 41 -123t115 -47q73 0 114 47t41 123h139q0 -128 -81 -209q-82 -82 -215 -82z" />
    <glyph glyph-name="aogonek.alt" 
d="M606 -25h-12q-223 0 -371 154q-147 153 -147 385q0 234 149 389q150 156 377 156q118 0 227 -53q109 -56 175 -152v180h178v-1034h-23q-104 -125 -139 -184q-37 -61 -37 -105q0 -42 25 -67t67 -25q26 0 53 6q22 5 50 23v-131q-38 -23 -68 -31q-42 -10 -72 -10
q-88 0 -149 55q-62 56 -62 139q0 73 33 135q33 65 150 197v182q-68 -95 -174 -153q-106 -56 -230 -56zM268 516q0 -156 105 -264q104 -107 260 -107t260 107t104 264t-104 264t-260 107t-260 -107q-105 -108 -105 -264z" />
    </font>
</defs>
</svg>
