<?xml version="1.0" standalone="no"?>
<!DOCTYPE svg PUBLIC "-//W3C//DTD SVG 1.1//EN" "http://www.w3.org/Graphics/SVG/1.1/DTD/svg11.dtd" >
<svg xmlns="http://www.w3.org/2000/svg" xmlns:xlink="http://www.w3.org/1999/xlink" version="1.1">
<metadata>
Created by FontForge 20170731 at Thu Jan  6 10:25:19 2022
 By Aleksey,,,
Copyright (c) 2018 by Eduardo Manso. All rights reserved.
</metadata>
<defs>
<font id="SteradianMedium" horiz-adv-x="1349" >
  <font-face 
    font-family="Steradian Medium"
    font-weight="500"
    font-stretch="normal"
    units-per-em="2048"
    panose-1="0 0 0 0 0 0 0 0 0 0"
    ascent="1638"
    descent="-410"
    x-height="1038"
    cap-height="1440"
    bbox="-496 -569 2824 1978"
    underline-thickness="73"
    underline-position="-400"
    unicode-range="U+000D-FF19"
  />
<missing-glyph horiz-adv-x="1779" 
d="M1583 721l-2 -2q0 -299 -211 -510t-506 -211q-297 0 -510 213q-211 211 -211 510q0 297 213 510q211 211 510 211q295 0 506 -211t211 -510zM193 719h-3q0 -276 197 -473t473 -197t473 197t197 473t-197 473t-471 197q-276 0 -473 -197q-196 -196 -196 -473zM1217 432
h-146l-215 213l-215 -213h-147l286 287l-276 278h147l205 -202l205 204h149l-280 -280z" />
    <glyph glyph-name=".notdef" horiz-adv-x="1779" 
d="M1583 721l-2 -2q0 -299 -211 -510t-506 -211q-297 0 -510 213q-211 211 -211 510q0 297 213 510q211 211 510 211q295 0 506 -211t211 -510zM193 719h-3q0 -276 197 -473t473 -197t473 197t197 473t-197 473t-471 197q-276 0 -473 -197q-196 -196 -196 -473zM1217 432
h-146l-215 213l-215 -213h-147l286 287l-276 278h147l205 -202l205 204h149l-280 -280z" />
    <glyph glyph-name=".null" horiz-adv-x="0" 
 />
    <glyph glyph-name="nonmarkingreturn" horiz-adv-x="682" 
 />
    <glyph glyph-name="NULL" horiz-adv-x="0" 
 />
    <glyph glyph-name="NULL" horiz-adv-x="0" 
 />
    <glyph glyph-name="CR" unicode="&#xd;" horiz-adv-x="483" 
 />
    <glyph glyph-name="space" unicode=" " horiz-adv-x="483" 
 />
    <glyph glyph-name="exclam" unicode="!" horiz-adv-x="589" 
d="M379 467h-168l-51 475v498h270v-498zM473 147l8 -2q0 -74 -51 -122q-53 -50 -129 -50t-129 50q-51 48 -51 122q0 78 49 127q50 50 127 50t127 -50q49 -49 49 -125z" />
    <glyph glyph-name="quotedbl" unicode="&#x22;" horiz-adv-x="829" 
d="M313 887h-155l-56 502v51h265v-51zM672 887h-156l-55 502v51h264v-51z" />
    <glyph glyph-name="numbersign" unicode="#" horiz-adv-x="1378" 
d="M1202 602l-47 -203h-215l-78 -309h-209l76 309h-242l-75 -309h-211l78 309h-213l47 203h217l59 234h-215l51 202h215l76 310h211l-78 -310h242l78 310h209l-78 -310h215l-51 -202h-215l-60 -234h213zM598 836l-59 -234h241l60 234h-242z" />
    <glyph glyph-name="dollar" unicode="$" horiz-adv-x="1157" 
d="M702 -236l-247 -59v283q-180 41 -277 164q-98 122 -104 319h272q3 -123 72 -192q68 -68 184 -68q105 0 160 49t55 146q0 64 -37 104t-149 80l-176 61q-191 64 -269 160q-77 95 -77 242q0 149 92 258q89 105 250 141v211l256 59v-270q162 -35 254 -152q92 -118 104 -301
h-277q-6 114 -61 172q-57 60 -154 60q-92 0 -143 -45q-55 -46 -55 -123q0 -67 37 -107q35 -38 135 -73l196 -66q189 -62 265 -153q77 -95 77 -238q0 -189 -100 -301q-104 -116 -283 -143v-218z" />
    <glyph glyph-name="percent" unicode="%" horiz-adv-x="1576" 
d="M768 1112v-2q0 -144 -98 -242t-250 -98q-154 0 -252 98t-98 244t98 240q104 96 252 96q146 0 250 -96q98 -94 98 -240zM1233 1438h211l-1104 -1440h-211zM254 1108v-2q0 -70 47 -117q45 -45 117 -45q70 0 117 47q45 45 45 117q0 74 -45 119q-46 49 -117 49t-117 -49
q-47 -53 -47 -119zM1509 326l2 4q0 -144 -98 -242t-250 -98q-148 0 -252 96q-98 94 -98 244q0 145 98 239q105 97 250 97q151 0 250 -99q98 -98 98 -241zM999 328l-4 -2q0 -70 47 -117q45 -45 117 -45q70 0 117 47t47 117q0 73 -45 118q-47 50 -117 50t-117 -50
q-45 -45 -45 -118z" />
    <glyph glyph-name="ampersand" unicode="&#x26;" horiz-adv-x="1431" 
d="M1092 803l270 -4l-266 -443l329 -360h-319l-143 158q-84 -96 -191 -142q-102 -45 -242 -45q-191 0 -323 117q-133 118 -133 285q0 143 80 252q83 108 233 170q-75 93 -111 172q-34 78 -34 159q0 141 116 242q112 100 281 100q161 0 270 -92t109 -227q0 -117 -76 -211
t-217 -160l215 -237zM635 1249l4 -2q-64 0 -107 -43t-43 -104q0 -40 21 -80q18 -33 86 -113q102 53 141 103q41 53 41 106q0 60 -39 96q-40 37 -104 37zM338 387l2 -2q0 -81 66 -141q64 -58 159 -58q84 0 140 33q62 33 110 100l-293 322q-97 -48 -141 -111q-43 -61 -43 -143
z" />
    <glyph glyph-name="quotesingle" unicode="'" horiz-adv-x="468" 
d="M313 887h-155l-56 502v51h265v-51z" />
    <glyph glyph-name="parenleft" unicode="(" horiz-adv-x="663" 
d="M610 -287h-268q-125 201 -190 451q-64 244 -64 528q0 253 66 508q64 248 190 459h264q-132 -236 -196 -479q-66 -252 -66 -492q0 -266 68 -514t196 -461z" />
    <glyph glyph-name="parenright" unicode=")" horiz-adv-x="663" 
d="M53 -287h-4q130 216 197 461q67 244 67 514q0 244 -65 492q-64 239 -197 479h264q128 -214 191 -459q65 -251 65 -508q0 -288 -63 -528q-64 -247 -191 -451h-264z" />
    <glyph glyph-name="asterisk" unicode="*" horiz-adv-x="952" 
d="M340 698l-184 127l159 195l-241 67l78 207l231 -100l-21 246h232l-19 -244l228 98l76 -209l-248 -67l162 -195l-183 -129l-135 230z" />
    <glyph glyph-name="plus" unicode="+" horiz-adv-x="1167" 
d="M686 248h-205v366h-366v205h366v367h205v-367h367v-205h-367v-366z" />
    <glyph glyph-name="comma" unicode="," horiz-adv-x="550" 
d="M244 -336l-189 -2l154 320q-46 17 -82 65q-31 48 -31 98q0 78 49 127q50 50 127 50q76 0 129 -50q52 -49 52 -122q0 -20 -7 -44l-8 -24t-12 -31z" />
    <glyph glyph-name="hyphen" unicode="-" horiz-adv-x="749" 
d="M125 653h500v-231h-500v231z" />
    <glyph glyph-name="period" unicode="." horiz-adv-x="540" 
d="M449 147l8 -2q0 -74 -51 -122q-53 -50 -130 -50q-76 0 -129 50q-51 48 -51 122q0 78 49 127q50 50 127 50t127 -50t50 -125z" />
    <glyph glyph-name="slash" unicode="/" horiz-adv-x="862" 
d="M547 1659h256l-486 -1946h-256z" />
    <glyph glyph-name="zero" unicode="0" horiz-adv-x="1304" 
d="M1186 506v-2q0 -251 -148 -393t-387 -142t-387 142q-147 141 -147 393v430q0 250 147 391t387 141t387 -141q148 -142 148 -389v-430zM649 1210l-6 -2q-122 0 -192 -73q-70 -70 -70 -205v-428q0 -135 70 -205q71 -74 196 -74q126 0 197 74q71 77 71 205v428
q0 138 -69 207q-70 73 -197 73z" />
    <glyph glyph-name="one" unicode="1" horiz-adv-x="757" 
d="M584 0h-269v1194h-286l61 246h494v-1440z" />
    <glyph glyph-name="two" unicode="2" horiz-adv-x="1239" 
d="M1149 0l-1049 6v207l574 541q85 78 117 139q34 64 34 127q0 87 -59 143t-158 56q-110 0 -178 -68q-67 -67 -76 -180h-274q12 221 160 360q151 139 383 139q222 0 352 -118q135 -120 135 -314q0 -128 -57 -233q-59 -108 -222 -258l-325 -301h643v-246z" />
    <glyph glyph-name="three" unicode="3" horiz-adv-x="1212" 
d="M80 422h274q9 -87 80 -143t174 -56q106 0 174 62t68 153q0 102 -68 158q-67 55 -186 55h-152v197h160q87 0 146 53q55 52 55 141q0 81 -57 129q-59 50 -154 50t-154 -50t-65 -135h-271q9 187 146 312q134 122 354 122q212 0 340 -110q129 -111 129 -275q0 -110 -49 -192
q-50 -83 -141 -129q117 -45 176 -135q59 -89 59 -215q0 -188 -141 -314q-137 -125 -371 -125q-229 0 -370 123t-156 324z" />
    <glyph glyph-name="four" unicode="4" horiz-adv-x="1234" 
d="M47 475l549 965h309l-538 -928h405v287l262 61v-348h146v-240h-146v-272h-262v272h-725v203z" />
    <glyph glyph-name="five" unicode="5" horiz-adv-x="1196" 
d="M227 1440l795 2v-246h-580l-28 -299q50 21 102 33t105 12q224 0 356 -129q131 -128 131 -346q0 -211 -147 -352q-148 -142 -365 -142q-218 0 -369 127t-166 326h275q12 -92 82 -150q69 -57 172 -57q104 0 182 72q74 71 74 172q0 107 -70 174q-71 68 -184 68
q-69 0 -127 -25q-53 -23 -92 -74l-217 27z" />
    <glyph glyph-name="six" unicode="6" horiz-adv-x="1200" 
d="M614 -27l-4 -2q-223 0 -374 148q-152 149 -152 360q0 101 37 211q44 123 100 207l363 545h311l-356 -502q27 9 61 12q46 4 68 4q199 0 338 -139t139 -338q0 -210 -154 -358t-377 -148zM348 475l-4 -2q0 -113 74 -190q73 -76 188 -76q116 0 189 76t73 190q0 109 -73 182
q-74 74 -187 74q-112 0 -186 -74t-74 -180z" />
    <glyph glyph-name="seven" unicode="7" horiz-adv-x="1091" 
d="M737 1194h-686v246h993v-211l-587 -1229h-299z" />
    <glyph glyph-name="eight" unicode="8" horiz-adv-x="1220" 
d="M1128 418h-6q0 -195 -143 -320t-375 -125q-230 0 -375 127q-143 125 -143 320q0 113 55 207t158 153q-70 55 -111 133q-38 72 -38 166q0 166 129 277q128 110 329 110q200 0 328 -110q129 -111 129 -277q0 -92 -39 -166q-41 -78 -111 -133q103 -59 158 -153t55 -209z
M393 1057l-2 -4q0 -79 60 -133t153 -54q94 0 154 54q59 53 59 135q0 84 -57 135q-59 53 -154 53q-94 0 -153 -53q-60 -54 -60 -133zM348 426l-2 -6q0 -94 72 -160q69 -63 182 -63t184 65q72 66 72 160q0 100 -70 164q-71 65 -184 65q-115 0 -184 -63q-70 -64 -70 -162z" />
    <glyph glyph-name="nine" unicode="9" horiz-adv-x="1200" 
d="M586 1466l4 -2q225 0 375 -147q151 -148 151 -359q0 -100 -37 -210q-39 -116 -100 -205l-363 -545h-311l357 502q-31 -10 -62 -13q-46 -4 -68 -4q-197 0 -337 140t-140 338q0 210 154 358q153 147 377 147zM852 961l-4 -3q0 114 -74 191q-73 76 -186 76q-114 0 -187 -76
t-73 -191q0 -107 73 -180t189 -73q115 0 188 73q74 74 74 183z" />
    <glyph glyph-name="colon" unicode=":" horiz-adv-x="591" 
d="M473 147l8 -2q0 -74 -51 -122q-53 -50 -129 -50t-129 50q-51 48 -51 122q0 78 49 127q50 50 127 50t127 -50q49 -49 49 -125zM481 887l8 -2q0 -75 -51 -123q-52 -49 -129 -49t-129 49q-51 48 -51 123q0 78 49 127t127 49t127 -49t49 -125z" />
    <glyph glyph-name="semicolon" unicode=";" horiz-adv-x="608" 
d="M276 -336l-188 -2l154 320q-46 17 -82 65q-31 48 -31 98q0 78 49 127q50 50 127 50q76 0 129 -50q51 -48 51 -122q0 -23 -6 -44l-8 -24t-12 -31zM483 887l9 -2q0 -74 -52 -123t-129 -49t-129 49q-51 48 -51 123q0 78 49 127t127 49t127 -49t49 -125z" />
    <glyph glyph-name="less" unicode="&#x3c;" horiz-adv-x="1167" 
d="M135 592v207l858 415v-247l-567 -271l567 -274v-246z" />
    <glyph glyph-name="equal" unicode="=" horiz-adv-x="1167" 
d="M115 836v204h938v-204h-938zM115 393v205h938v-205h-938z" />
    <glyph glyph-name="greater" unicode="&#x3e;" horiz-adv-x="1167" 
d="M1032 799v-207l-858 -416v248l567 270l-567 275v245z" />
    <glyph glyph-name="question" unicode="?" horiz-adv-x="1140" 
d="M406 582l229 186q67 55 104 125q35 72 35 145q0 85 -57 136t-154 51q-107 0 -172 -62q-64 -61 -67 -166h-267q9 209 150 338q145 127 368 127q214 0 345 -110q133 -112 133 -291q0 -113 -54 -227q-54 -111 -153 -197l-199 -170h-241v115zM705 143l8 -2q0 -75 -51 -123
q-52 -49 -130 -49q-77 0 -129 49q-51 48 -51 123q0 78 49 127t127 49t127 -49q50 -50 50 -125z" />
    <glyph glyph-name="at" unicode="@" horiz-adv-x="1861" 
d="M797 162l-15 -15q-132 0 -219 93q-86 92 -86 239q0 180 115 307q113 125 276 125q84 0 148 -30q57 -25 100 -90l25 104h221l-102 -430q-21 -96 6 -146q27 -49 104 -49q94 0 156 99q61 98 61 256q0 255 -186 417q-188 164 -473 164q-289 0 -479 -184q-191 -185 -191 -479
q0 -291 191 -467q186 -174 479 -174q88 0 159 12q53 10 123 35v-168q-58 -21 -133 -33q-73 -12 -149 -12q-177 0 -326 57q-159 59 -274 166q-121 112 -185 258q-63 141 -63 326q0 187 63 334q66 153 185 266q115 109 274 172q155 61 330 61q353 0 598 -213
q242 -211 242 -534q0 -236 -117 -377t-320 -141q-100 0 -174 45q-76 46 -100 129q-53 -62 -117 -92q-67 -31 -147 -31zM711 494l-2 -2q0 -87 36 -132t105 -45q87 0 147 78t60 185q0 67 -43 110t-113 43q-81 0 -135 -69q-55 -70 -55 -168z" />
    <glyph glyph-name="A" unicode="A" horiz-adv-x="1415" 
d="M565 1440h287l530 -1440h-288l-105 301h-579l-105 -301h-274zM909 526l-209 602l-211 -602h420z" />
    <glyph glyph-name="B" unicode="B" horiz-adv-x="1384" 
d="M815 0l-641 -2v1440h567q219 0 351 -99q133 -100 133 -268q0 -107 -56 -190q-55 -82 -159 -131q135 -40 215 -132q75 -87 75 -217q0 -179 -135 -290t-350 -111zM950 1032h-2q0 87 -63 135q-65 50 -172 50h-271v-383h277q105 0 170 53q61 52 61 145zM1022 426
q0 88 -68 141q-73 54 -180 54h-336v-404h336q113 0 180 55q68 56 68 154z" />
    <glyph glyph-name="C" unicode="C" horiz-adv-x="1646" 
d="M1294 584l277 -2q-47 -271 -250 -441q-206 -170 -490 -170q-322 0 -534 215q-213 219 -213 533q0 311 213 530q212 215 534 215q279 0 482 -159q202 -159 258 -422h-287q-53 151 -172 239q-122 90 -281 90q-199 0 -331 -141q-133 -145 -133 -348q0 -207 133 -352
q133 -142 331 -142q168 0 297 97q125 94 166 258z" />
    <glyph glyph-name="D" unicode="D" horiz-adv-x="1564" 
d="M702 0l-530 -2v1440h528q338 0 557 -195q216 -195 216 -520q0 -328 -216 -526q-215 -197 -555 -197zM440 1184v-932h252q224 0 363 127q135 126 135 344q0 215 -135 338t-363 123h-252z" />
    <glyph glyph-name="E" unicode="E" horiz-adv-x="1198" 
d="M1090 0h-916v1440h905v-246h-637v-346h588v-234h-588v-368h648v-246z" />
    <glyph glyph-name="F" unicode="F" horiz-adv-x="1153" 
d="M442 0h-268v1440h905v-246h-637v-367h588v-239h-588v-588z" />
    <glyph glyph-name="G" unicode="G" horiz-adv-x="1658" 
d="M1540 743l-10 -749h-225v217q-81 -118 -211 -180t-295 -62q-311 0 -514 215t-203 535q0 313 213 532q212 215 532 215q263 0 455 -143q194 -144 258 -381h-295q-54 129 -164 197q-115 71 -252 71q-199 0 -331 -141q-131 -137 -131 -350q0 -214 133 -359
q132 -141 342 -141q175 0 293 80q115 78 153 231h-459v213h711z" />
    <glyph glyph-name="H" unicode="H" horiz-adv-x="1464" 
d="M442 0h-268v1440h268v-578h582v578h266v-1440h-266v608h-582v-608z" />
    <glyph glyph-name="I" unicode="I" horiz-adv-x="614" 
d="M442 0h-268v1440h268v-1440z" />
    <glyph glyph-name="J" unicode="J" horiz-adv-x="1198" 
d="M770 1440l268 -2v-969q0 -220 -141 -358q-138 -138 -362 -138q-217 0 -357 140q-139 139 -139 362h268q0 -114 62 -182t170 -68q109 0 170 70t61 184v961z" />
    <glyph glyph-name="K" unicode="K" horiz-adv-x="1296" 
d="M174 1440h268v-647l531 647h317l-577 -695l583 -745h-340l-514 664v-664h-268v1440z" />
    <glyph glyph-name="L" unicode="L" horiz-adv-x="1083" 
d="M1051 0h-877v1440h268v-1194h609v-246z" />
    <glyph glyph-name="M" unicode="M" horiz-adv-x="1931" 
d="M432 0h-258v1440h328l469 -996l473 996h315v-1440h-260v995l-479 -997h-107l-481 1008v-1006z" />
    <glyph glyph-name="N" unicode="N" horiz-adv-x="1474" 
d="M426 0h-252v1440h254l619 -989v989h253v-1440h-258l-616 985v-985z" />
    <glyph glyph-name="O" unicode="O" horiz-adv-x="1693" 
d="M86 721l-2 -2q0 317 215 532t545 215q329 0 547 -215q217 -214 217 -530q0 -319 -217 -533q-218 -215 -547 -215q-328 0 -543 215t-215 533zM1325 719v-2q0 213 -137 350q-138 141 -344 141q-207 0 -342 -141t-135 -350q0 -211 135 -352q136 -142 344 -142t344 142
q135 141 135 354z" />
    <glyph glyph-name="P" unicode="P" horiz-adv-x="1327" 
d="M442 0l-268 -2v1440h547q240 0 397 -127q154 -127 154 -338q0 -217 -154 -350q-149 -131 -397 -131h-279v-492zM707 1200h-265v-475h265q124 0 208 66q80 65 80 178q0 108 -80 170q-79 61 -208 61z" />
    <glyph glyph-name="Q" unicode="Q" horiz-adv-x="1695" 
d="M86 721l-2 -2q0 317 215 532t545 215q329 0 547 -215q217 -214 217 -530q0 -165 -68 -313t-186 -254l235 -318h-293l-145 195q-76 -29 -147 -43q-70 -15 -160 -15q-328 0 -543 215t-215 533zM993 242l-354 471h293l260 -353q62 65 98 160q35 96 35 197q0 213 -137 350
q-138 141 -346 141t-346 -141q-138 -138 -138 -350q0 -215 136 -357q135 -141 348 -141q36 0 73 6z" />
    <glyph glyph-name="R" unicode="R" horiz-adv-x="1382" 
d="M442 0l-268 -4v1440h549q242 0 391 -119q152 -122 152 -322q0 -169 -101 -282q-102 -114 -282 -154l454 -559h-331l-435 543h-129v-543zM709 1202l-267 -2v-444h267q124 0 200 61q78 63 78 166q0 102 -76 160q-77 59 -202 59z" />
    <glyph glyph-name="S" unicode="S" horiz-adv-x="1265" 
d="M625 1466l-4 2q235 0 372 -122q140 -125 152 -345h-277q-6 116 -69 173q-65 59 -181 59q-103 0 -165 -45q-64 -46 -64 -123q0 -68 39 -107q38 -38 147 -73l224 -66q201 -59 286 -153q86 -95 86 -242q0 -212 -141 -332q-137 -119 -383 -119q-261 0 -411 129t-156 367h272
q3 -125 80 -193q76 -67 209 -67q126 0 193 49t67 145q0 66 -43 109q-42 42 -170 80l-207 61q-192 58 -276 154q-82 94 -82 246q0 185 141 299q144 114 361 114z" />
    <glyph glyph-name="T" unicode="T" horiz-adv-x="1138" 
d="M702 0h-266v1194h-403v246h1073v-246h-404v-1194z" />
    <glyph glyph-name="U" unicode="U" horiz-adv-x="1417" 
d="M989 1440l268 -2v-953q0 -225 -155 -368q-156 -144 -395 -144q-234 0 -392 146q-153 144 -153 368v953h268v-944q0 -121 74 -195t194 -74q131 0 211 74t80 195v944z" />
    <glyph glyph-name="V" unicode="V" horiz-adv-x="1357" 
d="M821 0h-286l-492 1440h297l344 -1069l348 1069h283z" />
    <glyph glyph-name="W" unicode="W" horiz-adv-x="2074" 
d="M745 0h-286l-416 1440h291l284 -1055l306 1055h247l299 -1047l289 1047h275l-420 -1440h-283l-291 969z" />
    <glyph glyph-name="X" unicode="X" horiz-adv-x="1372" 
d="M305 0h-303l520 733l-495 707h313l344 -500l354 500h299l-495 -699l534 -741h-321l-377 526z" />
    <glyph glyph-name="Y" unicode="Y" horiz-adv-x="1333" 
d="M803 0h-268v502l-492 938h301l328 -649l338 649h280l-487 -922v-518z" />
    <glyph glyph-name="Z" unicode="Z" horiz-adv-x="1216" 
d="M1133 0h-1051v215l704 979h-690v246h1024v-230l-700 -964h713v-246z" />
    <glyph glyph-name="bracketleft" unicode="[" horiz-adv-x="741" 
d="M676 1659v-238h-250v-1470h250v-238h-508v1946h508z" />
    <glyph glyph-name="backslash" unicode="\" horiz-adv-x="862" 
d="M315 1659l486 -1946h-256l-486 1946h256z" />
    <glyph glyph-name="bracketright" unicode="]" horiz-adv-x="741" 
d="M66 1659h507v-1946h-507v238h249v1470h-249v238z" />
    <glyph glyph-name="asciicircum" unicode="^" horiz-adv-x="1167" 
d="M461 1440h248l374 -858h-270l-229 542l-230 -542h-272z" />
    <glyph glyph-name="underscore" unicode="_" horiz-adv-x="901" 
d="M-2 -213h905v-221h-905v221z" />
    <glyph glyph-name="grave" unicode="`" horiz-adv-x="589" 
d="M256 1167l-170 301h248l166 -301h-244z" />
    <glyph glyph-name="a" unicode="a" horiz-adv-x="1132" 
d="M752 0l-2 129q-52 -76 -136 -117q-87 -41 -180 -41q-150 0 -246 84t-96 215q0 132 86 215q81 81 268 125l299 70v12q0 73 -51 115q-52 43 -135 43q-80 0 -133 -41q-54 -42 -66 -111h-245q9 158 135 263q125 104 311 104q205 0 320 -109q114 -108 114 -294v-662h-243z
M492 178h-3q104 0 179 78q73 76 73 182v54l-233 -54q-87 -21 -127 -55q-41 -35 -41 -86q0 -59 39 -88q42 -31 113 -31z" />
    <glyph glyph-name="b" unicode="b" 
d="M393 0l-237 2v1518h256v-627q66 84 157 129q86 45 203 45q219 0 361 -154q141 -153 141 -389q0 -237 -144 -393t-368 -156q-107 0 -209 48q-96 47 -160 135v-158zM1010 522l-4 -6q0 132 -86 221q-87 90 -218 90q-132 0 -217 -88q-86 -89 -86 -221q0 -134 86 -223
q85 -88 220 -88q132 0 219 90q86 89 86 225z" />
    <glyph glyph-name="c" unicode="c" horiz-adv-x="1239" 
d="M635 1065l-6 -2q207 0 354 -123t182 -317h-256q-27 92 -102 149q-73 55 -174 55q-132 0 -217 -88q-86 -89 -86 -221t86 -221q85 -88 217 -88q101 0 178 59t104 154h254q-35 -203 -182 -326q-143 -125 -352 -125q-236 0 -402 158q-159 156 -159 391q0 231 159 387
q166 158 402 158z" />
    <glyph glyph-name="d" unicode="d" 
d="M582 -27l-2 -2q-219 0 -361 154q-141 153 -141 389q0 238 143 393q144 156 365 156q110 0 200 -43q94 -46 158 -125v621h256v-1518h-242v166q-63 -90 -161 -141q-100 -50 -215 -50zM342 516v-2q0 -132 86 -221q85 -88 219 -88q130 0 217 90q86 89 86 221t-86 221
q-87 90 -217 90q-134 0 -219 -88q-86 -89 -86 -223z" />
    <glyph glyph-name="e" unicode="e" horiz-adv-x="1241" 
d="M625 186l4 -4q92 0 159 37q67 39 107 111h250q-52 -169 -191 -264q-142 -97 -331 -97q-236 0 -394 158q-155 155 -155 391q0 228 159 387q160 160 394 160q237 0 387 -150q151 -151 151 -380v-82h-843q18 -120 100 -193q83 -74 203 -74zM631 848h4q-109 0 -184 -57
q-77 -59 -111 -160h580q-26 100 -105 160q-75 57 -184 57z" />
    <glyph glyph-name="f" unicode="f" horiz-adv-x="776" 
d="M489 0l-253 -2v809h-168v229h168v103q0 200 98 301q99 102 291 102q26 0 80 -4q36 -3 75 -12v-226q-47 11 -63 13q-36 4 -49 4q-93 0 -136 -43t-43 -137v-99h254v-229h-254v-809z" />
    <glyph glyph-name="g" unicode="g" horiz-adv-x="1292" 
d="M88 -47l252 2q3 -94 78 -148q73 -55 194 -55q131 0 201 70q74 71 74 186v193q-60 -69 -146 -111q-77 -39 -184 -39q-208 0 -344 142q-135 141 -135 362q0 223 135 367q136 145 348 145q106 0 191 -43q86 -44 147 -123v137h242v-1007q0 -223 -142 -359
q-141 -135 -385 -135q-223 0 -370 117q-147 120 -156 299zM344 559v2q0 -119 78 -203q76 -79 196 -79q121 0 197 79q78 84 78 201t-78 201q-77 80 -197 80q-119 0 -196 -80q-78 -84 -78 -201z" />
    <glyph glyph-name="h" unicode="h" horiz-adv-x="1234" 
d="M406 0l-254 2v1518h256v-598q52 70 133 108q78 37 172 37q172 0 278 -109q105 -108 105 -286v-670h-256v610q0 101 -56 160t-155 59q-101 0 -162 -67t-61 -172v-592z" />
    <glyph glyph-name="i" unicode="i" horiz-adv-x="559" 
d="M113 1354l-4 -2q0 69 47 116q45 45 120 45q76 0 121 -45q47 -47 47 -116q0 -70 -47 -117q-45 -45 -121 -45q-71 0 -118 47q-45 45 -45 117zM403 -2h-256v1038h256v-1038z" />
    <glyph glyph-name="j" unicode="j" horiz-adv-x="573" 
d="M453 1358h-2q0 -67 -45 -109q-46 -43 -117 -43q-70 0 -113 43t-43 109q0 67 43 110t115 43q71 0 117 -43q45 -42 45 -110zM164 1038l256 2v-1097q0 -202 -98 -303t-291 -101h-49q-15 0 -43 4v226q18 0 24 -2q15 -3 23 -3q92 0 135 43t43 136v1095z" />
    <glyph glyph-name="k" unicode="k" horiz-adv-x="1101" 
d="M406 0h-256v1518h256v-906l344 426h297l-383 -465l452 -573h-315l-395 506v-506z" />
    <glyph glyph-name="l" unicode="l" horiz-adv-x="559" 
d="M152 1518h256v-1518h-256v1518z" />
    <glyph glyph-name="m" unicode="m" horiz-adv-x="1886" 
d="M406 0l-263 2v1038h244v-135q53 77 133 121q79 43 176 43q113 0 195 -49q83 -50 129 -137q51 83 145 137q88 49 201 49q169 0 274 -111t105 -284v-670h-256v610q0 101 -53 160q-54 60 -148 60q-96 0 -155 -68q-58 -64 -58 -172v-592h-256v610q0 101 -53 160t-148 59
q-97 0 -155 -67q-57 -63 -57 -172v-592z" />
    <glyph glyph-name="n" unicode="n" horiz-adv-x="1234" 
d="M406 0l-259 2v1038h244v-135q56 77 139 121q82 43 183 43q173 0 278 -108t105 -287v-670h-256v602q0 107 -56 166t-155 59q-101 0 -162 -67t-61 -172v-592z" />
    <glyph glyph-name="o" unicode="o" horiz-adv-x="1267" 
d="M76 520v-6q0 230 157 387q158 158 400 158q245 0 401 -156q160 -157 160 -387q0 -232 -160 -389q-156 -156 -401 -156q-242 0 -400 158q-157 157 -157 391zM940 514l4 -2q0 133 -88 221t-221 88q-132 0 -217 -88q-86 -89 -86 -221t86 -221q85 -88 217 -88t219 90
q86 89 86 221z" />
    <glyph glyph-name="p" unicode="p" 
d="M150 -434v1472h243v-161q65 90 164 139q98 49 213 49q218 0 360 -154t142 -389q0 -237 -144 -393t-368 -156q-109 0 -199 43q-91 43 -155 125v-575h-256zM1004 520l-5 -6q0 132 -86 221q-87 90 -217 90q-132 0 -217 -88q-86 -89 -86 -221q0 -134 86 -223q85 -88 219 -88
q133 0 220 90q86 89 86 225z" />
    <glyph glyph-name="q" unicode="q" 
d="M582 -27q-219 0 -361 154q-141 153 -141 389q0 238 143 393q144 156 365 156q115 0 209 -49q96 -50 159 -137v159h242v-1472h-256v581q-65 -83 -158 -129q-86 -45 -202 -45zM344 518v-2q0 -132 86 -221q85 -88 219 -88q130 0 217 90q86 89 86 221t-86 221q-87 90 -217 90
q-134 0 -219 -88q-86 -89 -86 -223z" />
    <glyph glyph-name="r" unicode="r" horiz-adv-x="804" 
d="M694 817l-2 -4q-134 0 -211 -86q-75 -81 -75 -227v-504h-256v1038h243v-184q52 97 133 151q85 54 183 54h30q21 0 25 -2v-244l-33 6q-14 2 -37 2z" />
    <glyph glyph-name="s" unicode="s" horiz-adv-x="1040" 
d="M522 1065l-2 2q185 0 297 -86q111 -86 123 -248h-262q-3 69 -43 103t-119 34q-71 0 -110 -26q-44 -27 -44 -74q0 -45 31 -70q32 -25 127 -45l103 -22q180 -40 260 -113q75 -72 75 -198q0 -161 -116 -252q-119 -93 -314 -93q-213 0 -338 93q-123 91 -129 268h269
q3 -78 51 -123q49 -43 139 -43q81 0 129 31q47 30 47 90q0 47 -30 74q-39 30 -113 47l-123 28q-176 43 -254 115q-74 71 -74 191q0 146 117 231q118 86 303 86z" />
    <glyph glyph-name="t" unicode="t" horiz-adv-x="815" 
d="M213 1038v308l256 59v-367h256v-229h-256v-449q0 -81 35 -122q34 -37 110 -37q32 0 74 10q31 8 72 31v-226q-42 -19 -96 -32t-107 -13q-172 0 -258 92t-86 277v469h-166v229h166z" />
    <glyph glyph-name="u" unicode="u" horiz-adv-x="1216" 
d="M594 207l-6 -2q102 0 160 67q57 63 57 174v592h258v-1038h-246v135q-52 -76 -131 -119t-176 -43q-167 0 -270 109t-103 287v669h256v-602q0 -103 53 -168q52 -61 148 -61z" />
    <glyph glyph-name="v" unicode="v" horiz-adv-x="1124" 
d="M705 0h-287l-383 1038h270l260 -723l260 723h265z" />
    <glyph glyph-name="w" unicode="w" horiz-adv-x="1765" 
d="M645 0h-260l-352 1038h256l235 -721l238 721h246l239 -723l238 723h248l-355 -1038h-256l-239 698z" />
    <glyph glyph-name="x" unicode="x" horiz-adv-x="1077" 
d="M291 0h-275l371 524l-356 514h288l228 -327l227 327h270l-358 -508l379 -530h-295l-240 340z" />
    <glyph glyph-name="y" unicode="y" horiz-adv-x="1122" 
d="M821 1038h266l-540 -1472h-258l147 411l-405 1061h272l260 -723z" />
    <glyph glyph-name="z" unicode="z" horiz-adv-x="1054" 
d="M987 0h-921v172l567 637h-535v229h860v-182l-544 -627h573v-229z" />
    <glyph glyph-name="braceleft" unicode="{" horiz-adv-x="741" 
d="M356 739l-6 -16q64 -27 94 -88q31 -64 31 -162v-381q0 -86 31 -131q30 -43 96 -43h31q7 0 35 4v-237q-14 -2 -39 -2h-35q-189 0 -283 98q-94 94 -94 289v395q0 82 -31 121q-30 37 -94 37h-37v215h37q67 0 96 36q31 39 31 119v293q0 195 94 289q94 98 283 98h35
q25 0 39 -2v-237q-28 4 -33 4h-31q-66 0 -96 -43q-31 -45 -31 -131v-279q0 -101 -30 -160q-30 -58 -93 -86z" />
    <glyph glyph-name="bar" unicode="|" horiz-adv-x="593" 
d="M168 1659h258v-1946h-258v1946z" />
    <glyph glyph-name="braceright" unicode="}" horiz-adv-x="741" 
d="M385 739h-6q-62 27 -92 86q-31 60 -31 160v279q0 88 -31 133q-30 43 -96 43h-31q-18 0 -32 -2v237q28 4 38 4h35q189 0 283 -98q94 -94 94 -289v-293q0 -79 31 -118q30 -37 96 -37h37v-215h-37q-64 0 -94 -37q-31 -39 -31 -121v-395q0 -195 -94 -289q-94 -98 -283 -98
h-35q-10 0 -38 4v237q14 -2 34 -2h31q66 0 96 43q31 45 31 133v381q0 100 31 164q29 63 94 90z" />
    <glyph glyph-name="asciitilde" unicode="~" horiz-adv-x="1167" 
d="M639 856l-2 -6q71 -35 108 -43q31 -8 72 -8q71 0 123 30q54 36 115 117v-254q-34 -54 -103 -94q-67 -37 -153 -37q-55 0 -105 12q-52 12 -125 52q-68 33 -112 43q-52 10 -88 10q-79 0 -140 -37q-60 -39 -112 -117v246q29 57 104 104q70 46 160 46q51 0 111 -13
q67 -17 147 -51z" />
    <glyph glyph-name="uni00A0" unicode="&#xa0;" horiz-adv-x="483" 
 />
    <glyph glyph-name="exclamdown" unicode="&#xa1;" horiz-adv-x="565" 
d="M461 891l-8 -2q0 -75 -50 -125q-49 -49 -127 -49q-77 0 -126 49q-50 50 -50 127q0 74 52 123t129 49t129 -49q51 -48 51 -123zM358 569l52 -475v-497h-271v497l51 475h168z" />
    <glyph glyph-name="cent" unicode="&#xa2;" horiz-adv-x="1245" 
d="M764 -14l-256 -68v275q-190 43 -307 190t-117 344q0 195 117 342t305 191v217l256 57v-272q164 -34 274 -150q113 -119 140 -281h-256q-27 92 -103 150q-73 55 -174 55q-132 0 -217 -88q-86 -89 -86 -221t86 -221q85 -88 217 -88q101 0 178 59q78 60 105 154h254
q-29 -166 -142 -285q-109 -115 -274 -149v-211z" />
    <glyph glyph-name="sterling" unicode="&#xa3;" horiz-adv-x="1388" 
d="M1290 0l-1194 -4v211q84 18 146 102q61 82 61 189v30q0 15 -2 19h-205v213h180q-9 69 -12 110q-4 62 -4 78q0 243 139 379q138 135 373 135q234 0 375 -135t141 -377h-266q0 125 -64 189q-64 67 -178 67q-118 0 -184 -69q-68 -71 -68 -197q0 -9 4 -55l19 -123h350v-213
h-326v-19q0 -82 -24 -155q-24 -77 -70 -129h809v-246z" />
    <glyph glyph-name="currency" unicode="&#xa4;" horiz-adv-x="1351" 
d="M356 170l-262 -4l234 323q-32 56 -45 105q-15 52 -15 113q0 48 17 114q17 62 47 103l-236 327h260l131 -182q57 26 93 35q50 12 100 12q52 0 98 -12q32 -9 86 -35l131 182h260l-235 -323q33 -50 49 -107q16 -62 16 -112q0 -51 -16 -113q-16 -57 -47 -104l233 -322h-260
l-129 178q-50 -26 -88 -35q-50 -12 -100 -12t-100 12q-40 8 -93 35zM676 506q84 0 141 57t57 142q0 84 -57 141t-141 57t-141 -57q-58 -58 -58 -141q0 -84 58 -142q57 -57 141 -57z" />
    <glyph glyph-name="yen" unicode="&#xa5;" horiz-adv-x="1363" 
d="M817 0h-268v264h-369v185h369v53l-29 53h-340v184h244l-367 701h301l328 -649l338 649h281l-371 -701h252v-184h-348l-21 -37v-69h369v-185h-369v-264z" />
    <glyph glyph-name="brokenbar" unicode="&#xa6;" horiz-adv-x="604" 
d="M174 1659h256v-819h-256v819zM174 -287v819h256v-819h-256z" />
    <glyph glyph-name="section" unicode="&#xa7;" horiz-adv-x="1191" 
d="M727 512l-229 86q-231 93 -322 201q-86 103 -86 245q0 188 135 302q138 114 350 114q234 0 375 -123q143 -125 152 -336h-266q-3 111 -68 170q-66 60 -178 60q-109 0 -166 -51q-62 -53 -62 -138q0 -71 56 -124q52 -52 264 -144l322 -141v-121h-277zM463 483l229 -98
q239 -100 322 -199q86 -103 86 -245q0 -187 -135 -301q-131 -113 -351 -113q-237 0 -381 123t-153 336h266q6 -112 72 -172t178 -60q99 0 164 53q61 52 61 140q0 74 -51 125q-52 52 -264 147l-322 141v123h279z" />
    <glyph glyph-name="dieresis" unicode="&#xa8;" horiz-adv-x="765" 
d="M350 1309q0 -55 -37 -95q-35 -38 -92 -38q-56 0 -94 38q-39 39 -39 95q0 58 37 98q36 39 96 39q56 0 92 -39q37 -40 37 -98zM682 1309q0 -55 -37 -95q-35 -38 -92 -38q-60 0 -98 38q-39 39 -39 95q0 59 39 98t98 39q56 0 92 -39q37 -40 37 -98z" />
    <glyph glyph-name="copyright" unicode="&#xa9;" horiz-adv-x="1660" 
d="M1575 719h-6q0 -309 -217 -526q-220 -220 -525 -220q-306 0 -526 220q-219 219 -219 526q0 309 219 528t528 219q308 0 527 -219t219 -528zM223 719v-2q0 -248 178 -426t426 -178q249 0 424 178q176 182 176 426q0 246 -176 428q-175 178 -424 178q-248 0 -426 -178
t-178 -426zM827 1122l-2 -4q157 0 269 -92q111 -91 135 -240h-221q-19 59 -70 97q-53 35 -113 35q-84 0 -139 -58t-55 -147q0 -86 55 -144q54 -57 139 -57q68 0 117 37q50 38 68 96h221q-24 -151 -135 -242q-112 -92 -269 -92q-182 0 -299 117q-116 116 -116 291
q0 176 116 289q120 114 299 114z" />
    <glyph glyph-name="ordfeminine" unicode="&#xaa;" horiz-adv-x="743" 
d="M455 932v47q-20 -32 -62 -51q-43 -19 -86 -19q-76 0 -125 43t-49 111q0 69 45 111q49 43 141 63l127 27v6q0 28 -20 45q-21 18 -55 18t-56 -16q-21 -15 -24 -43h-154q3 83 72 137q67 55 164 55q109 0 170 -55t61 -151v-328h-149zM344 1032l2 2q43 0 74 31t31 72v14
l-93 -23q-28 -7 -49 -20q-14 -11 -14 -31q0 -21 12 -33t37 -12zM143 786h463v-161h-463v161z" />
    <glyph glyph-name="guillemotleft" unicode="&#xab;" horiz-adv-x="1021" 
d="M301 72l-223 448l223 451h248l-223 -451l223 -448h-248zM686 72l-223 448l223 451h248l-223 -451l223 -448h-248z" />
    <glyph glyph-name="logicalnot" unicode="&#xac;" horiz-adv-x="1167" 
d="M104 616v203h940v-571h-204v368h-736z" />
    <glyph glyph-name="uni00AD" unicode="&#xad;" horiz-adv-x="743" 
d="M123 721h500v-232h-500v232z" />
    <glyph glyph-name="registered" unicode="&#xae;" horiz-adv-x="1222" 
d="M610 444q-212 0 -360 148t-148 360q0 215 148 363q147 147 360 147q216 0 363 -147t147 -363q0 -213 -147 -360q-148 -148 -363 -148zM610 1337q-158 0 -268 -110q-111 -111 -111 -273q0 -159 111 -270t268 -111q160 0 271 111q110 110 110 270q0 163 -110 273t-271 110z
M555 721h-145v475h233q82 0 133 -45q55 -46 55 -117q0 -46 -24 -86q-22 -38 -68 -63l115 -164h-164l-96 139h-39v-139zM627 1073h-74v-102h74q27 0 41 14q16 16 16 37q0 23 -14 37t-43 14z" />
    <glyph glyph-name="macron" unicode="&#xaf;" horiz-adv-x="743" 
d="M659 1212h-573v174h573v-174z" />
    <glyph glyph-name="degree" unicode="&#xb0;" horiz-adv-x="778" 
d="M700 1159h-4q0 -129 -90 -219t-221 -90q-129 0 -219 90t-90 219q0 126 92 215q96 90 219 90q133 0 221 -88q92 -89 92 -217zM238 1157v-2q0 -59 43 -102t102 -43q61 0 104 43t43 104q0 62 -43 105t-104 43q-59 0 -102 -43t-43 -105z" />
    <glyph glyph-name="plusminus" unicode="&#xb1;" horiz-adv-x="1167" 
d="M686 360h-205v312h-366v202h366v312h205v-312h367v-202h-367v-312zM113 6v205h940v-205h-940z" />
    <glyph glyph-name="twosuperior" unicode="&#xb2;" horiz-adv-x="669" 
d="M606 1008l-534 -4v143l264 242q32 28 49 55q14 20 14 53q0 32 -20 49q-22 19 -55 19t-56 -23q-21 -21 -24 -55h-185q6 111 80 182q78 72 195 72q113 0 184 -62q70 -61 70 -161q0 -60 -31 -117q-28 -53 -113 -131l-98 -90h260v-172z" />
    <glyph glyph-name="threesuperior" unicode="&#xb3;" horiz-adv-x="663" 
d="M55 1223l172 4q6 -36 31 -58q20 -20 61 -20q40 0 68 22q25 22 25 62q0 44 -27 65q-30 23 -80 23h-59v129h53q46 0 70 18t24 54q0 35 -18 53t-53 18q-36 0 -56 -20q-21 -21 -24 -55h-181q6 101 80 163t191 62q115 0 182 -55q68 -56 68 -140q0 -52 -25 -94q-23 -39 -70 -63
q56 -21 84 -66q29 -50 29 -104q0 -95 -74 -160q-70 -64 -198 -64q-119 0 -193 62t-80 164z" />
    <glyph glyph-name="acute" unicode="&#xb4;" horiz-adv-x="589" 
d="M334 1167h-246l168 301h248z" />
    <glyph glyph-name="mu" unicode="&#xb5;" horiz-adv-x="1249" 
d="M616 207l-4 -4q102 0 160 67q57 63 57 174v592h258v-1038h-245v135q-52 -76 -131 -119t-174 -43q-39 0 -66 9q-32 10 -55 24v-438h-256v1472h256v-602q0 -103 53 -168q52 -61 147 -61z" />
    <glyph glyph-name="paragraph" unicode="&#xb6;" horiz-adv-x="1337" 
d="M766 1440l-4 -1731h-211v858h-16q-212 0 -345 121t-133 324q0 193 136 311q135 117 346 117h227zM1143 -291h-211v1727h211v-1727z" />
    <glyph glyph-name="periodcentered" unicode="&#xb7;" horiz-adv-x="561" 
d="M459 727l8 -2q0 -75 -51 -123q-52 -49 -129 -49t-129 49t-52 123q0 77 50 127q49 49 127 49t127 -49t49 -125z" />
    <glyph glyph-name="cedilla" unicode="&#xb8;" horiz-adv-x="806" 
d="M102 -217l150 250h176l-84 -135q105 -3 172 -64q66 -63 66 -162q0 -94 -74 -159q-70 -64 -180 -64q-112 0 -181 57q-70 58 -79 154l180 2q3 -27 24 -45t56 -18q33 0 55 22q23 23 23 55q0 35 -21 56q-22 22 -57 22q-30 0 -43 -8q-19 -8 -35 -31z" />
    <glyph glyph-name="onesuperior" unicode="&#xb9;" horiz-adv-x="446" 
d="M348 1008h-180v548h-139l43 173h276v-721z" />
    <glyph glyph-name="ordmasculine" unicode="&#xba;" horiz-adv-x="813" 
d="M684 1198v-4q0 -119 -80 -199t-198 -80q-117 0 -197 80t-80 201q0 110 80 190t197 80q115 0 198 -77q80 -77 80 -191zM295 1190l-2 -2q0 -50 31 -86q30 -35 79 -35q54 0 84 35q31 36 31 86t-31 86q-30 35 -81 35q-50 0 -80 -35q-31 -36 -31 -84zM137 788h537v-161h-537
v161z" />
    <glyph glyph-name="guillemotright" unicode="&#xbb;" horiz-adv-x="1021" 
d="M719 72h-248l223 448l-223 451h248l223 -451zM336 72h-248l223 448l-223 451h248l223 -451z" />
    <glyph glyph-name="onequarter" unicode="&#xbc;" horiz-adv-x="1443" 
d="M748 260l260 461h206l-256 -442h142v110l178 39v-149h53v-164h-53v-115h-178v115h-352v145zM430 719h-180v549h-139l43 172h276v-721zM1163 1440h211l-1104 -1440h-211z" />
    <glyph glyph-name="onehalf" unicode="&#xbd;" horiz-adv-x="1505" 
d="M1407 0l-535 -4v143l265 242q32 28 49 55q14 20 14 53t-20 50q-21 18 -56 18q-33 0 -55 -22t-25 -56h-184q6 112 80 183q77 71 195 71q114 0 184 -61t70 -162q0 -60 -31 -117q-28 -53 -113 -131l-98 -90h260v-172zM428 715h-180v549h-139l43 172h276v-721zM1161 1436h211
l-1104 -1440h-211z" />
    <glyph glyph-name="threequarters" unicode="&#xbe;" horiz-adv-x="1495" 
d="M805 260l260 461h207l-256 -442h141v110l178 39v-149h54v-164h-54v-115h-178v115h-352v145zM1223 1440h211l-1104 -1440h-211zM86 934l172 4q6 -35 31 -57q21 -21 61 -21q38 0 68 23q24 21 24 61q0 46 -26 66q-28 22 -80 22h-60v129h54q44 0 69 19t25 53q0 35 -18 53
q-19 19 -54 19q-34 0 -55 -21q-22 -22 -25 -55h-180q6 102 80 164q73 61 190 61q116 0 183 -55t67 -139q0 -54 -24 -95q-23 -39 -70 -63q56 -21 84 -66q29 -50 29 -104q0 -95 -74 -160q-69 -63 -199 -63q-119 0 -192 61q-74 62 -80 164z" />
    <glyph glyph-name="questiondown" unicode="&#xbf;" horiz-adv-x="1120" 
d="M420 891l-8 -2q0 75 51 123q52 49 129 49t129 -49q51 -48 51 -123q0 -76 -49 -125t-127 -49t-127 49t-49 127zM713 455l-232 -191q-67 -55 -104 -125q-35 -72 -35 -145q0 -84 57 -135q58 -52 154 -52q107 0 172 62t68 166h266q-9 -209 -150 -338q-137 -125 -368 -125
q-212 0 -344 111q-131 110 -131 292q0 116 53 228q53 109 153 196l199 170h242v-114z" />
    <glyph glyph-name="Agrave" unicode="&#xc0;" horiz-adv-x="1415" 
d="M565 1440h287l530 -1440h-288l-105 301h-579l-105 -301h-274zM909 526l-209 602l-211 -602h420zM586 1563l-170 301h248l165 -301h-243z" />
    <glyph glyph-name="Aacute" unicode="&#xc1;" horiz-adv-x="1415" 
d="M565 1440h287l530 -1440h-288l-105 301h-579l-105 -301h-274zM909 526l-209 602l-211 -602h420zM831 1563h-245l168 301h247z" />
    <glyph glyph-name="Acircumflex" unicode="&#xc2;" horiz-adv-x="1415" 
d="M565 1440h287l530 -1440h-288l-105 301h-579l-105 -301h-274zM909 526l-209 602l-211 -602h420zM354 1563l219 301h269l219 -301h-227l-127 172l-129 -172h-224z" />
    <glyph glyph-name="Atilde" unicode="&#xc3;" horiz-adv-x="1415" 
d="M565 1440h287l530 -1440h-288l-105 301h-579l-105 -301h-274zM909 526l-209 602l-211 -602h420zM756 1780q36 -28 41 -31q12 -6 22 -6q24 0 37 22q12 21 18 74h173q-9 -139 -62 -207q-52 -67 -149 -67q-40 0 -74 12q-32 11 -80 53q-30 30 -43 35q-15 6 -31 6
q-34 0 -49 -24q-13 -19 -20 -76h-172q9 142 65 209q56 71 160 71q46 0 78 -14q36 -13 86 -57z" />
    <glyph glyph-name="Adieresis" unicode="&#xc4;" horiz-adv-x="1415" 
d="M565 1440h287l530 -1440h-288l-105 301h-579l-105 -301h-274zM909 526l-209 602l-211 -602h420zM676 1702q0 -54 -37 -94q-36 -39 -92 -39q-55 0 -94 39t-39 94q0 58 37 98q36 39 96 39q56 0 92 -39q37 -40 37 -98zM1008 1702q0 -54 -37 -94q-36 -39 -92 -39
q-60 0 -99 39t-39 94q0 59 39 98t99 39q56 0 92 -39q37 -40 37 -98z" />
    <glyph glyph-name="Aring" unicode="&#xc5;" horiz-adv-x="1415" 
d="M565 1440h287l530 -1440h-288l-105 301h-579l-105 -301h-274zM909 526l-209 602l-211 -602h420zM936 1759q0 -91 -68 -153t-161 -62q-95 0 -160 62q-66 63 -66 153t66 156q63 63 160 63q98 0 161 -63q68 -65 68 -156zM625 1759h-2q0 -35 24 -59q25 -25 60 -25q36 0 61 25
t25 59q0 37 -25 62q-24 24 -61 24q-34 0 -58 -24t-24 -62z" />
    <glyph glyph-name="AE" unicode="&#xc6;" horiz-adv-x="1914" 
d="M1806 0h-915v301h-488l-170 -301h-280l815 1440h1028v-246h-637v-346h588v-234h-588v-368h647v-246zM891 1163l-361 -637h361v637z" />
    <glyph glyph-name="Ccedilla" unicode="&#xc7;" horiz-adv-x="1646" 
d="M1294 584l273 -4q-43 -247 -226 -418q-180 -168 -442 -189l-47 -77q105 -3 172 -64q66 -63 66 -162q0 -94 -74 -159q-70 -64 -180 -64q-112 0 -181 57q-71 59 -80 154l181 2q3 -27 24 -45t56 -18q33 0 55 22t22 55q0 36 -20 56q-22 22 -57 22q-30 0 -43 -8
q-19 -8 -35 -31l-148 68l121 196q-287 35 -467 244q-180 204 -180 498q0 311 213 530q212 215 534 215q279 0 482 -159q202 -159 258 -422h-287q-53 151 -172 239q-122 90 -281 90q-199 0 -331 -141q-133 -145 -133 -348q0 -207 133 -352q133 -142 331 -142q168 0 297 97
q125 94 166 258z" />
    <glyph glyph-name="Egrave" unicode="&#xc8;" horiz-adv-x="1198" 
d="M506 1563l-170 301h248l166 -301h-244zM1090 0h-916v1440h905v-246h-637v-346h588v-234h-588v-368h648v-246z" />
    <glyph glyph-name="Eacute" unicode="&#xc9;" horiz-adv-x="1198" 
d="M1090 0h-916v1440h905v-246h-637v-346h588v-234h-588v-368h648v-246zM752 1563h-246l168 301h248z" />
    <glyph glyph-name="Ecircumflex" unicode="&#xca;" horiz-adv-x="1198" 
d="M272 1563l220 301h268l219 -301h-227l-127 172l-129 -172h-224zM1090 0h-916v1440h905v-246h-637v-346h588v-234h-588v-368h648v-246z" />
    <glyph glyph-name="Edieresis" unicode="&#xcb;" horiz-adv-x="1198" 
d="M1090 0h-916v1440h905v-246h-637v-346h588v-234h-588v-368h648v-246zM596 1702q0 -54 -37 -94q-36 -39 -92 -39q-55 0 -94 39t-39 94q0 58 37 98q36 39 96 39q56 0 92 -39q37 -40 37 -98zM928 1702q0 -54 -37 -94q-36 -39 -92 -39q-60 0 -99 39q-38 38 -38 94q0 60 38 98
q39 39 99 39q56 0 92 -39q37 -40 37 -98z" />
    <glyph glyph-name="Igrave" unicode="&#xcc;" horiz-adv-x="614" 
d="M442 0h-268v1440h268v-1440zM186 1563l-170 301h248l166 -301h-244z" />
    <glyph glyph-name="Iacute" unicode="&#xcd;" horiz-adv-x="614" 
d="M442 0h-268v1440h268v-1440zM432 1563h-246l168 301h248z" />
    <glyph glyph-name="Icircumflex" unicode="&#xce;" horiz-adv-x="614" 
d="M442 0h-268v1440h268v-1440zM-45 1563l219 301h268l220 -301h-228l-127 172l-129 -172h-223z" />
    <glyph glyph-name="Idieresis" unicode="&#xcf;" horiz-adv-x="614" 
d="M442 0h-268v1440h268v-1440zM276 1702q0 -55 -36 -94t-93 -39q-55 0 -94 39t-39 94q0 58 37 98q36 39 96 39q57 0 93 -39t36 -98zM608 1702q0 -54 -37 -94q-36 -39 -92 -39q-59 0 -98 39t-39 94q0 59 39 98t98 39q56 0 92 -39q37 -40 37 -98z" />
    <glyph glyph-name="Eth" unicode="&#xd0;" horiz-adv-x="1603" 
d="M741 0l-530 -2v618h-170v197h170v625h528q338 0 557 -195q215 -194 215 -520q0 -329 -215 -526t-555 -197zM479 616v-364h252q224 0 363 127q135 126 135 344q0 215 -135 338t-363 123h-252v-371h348v-197h-348z" />
    <glyph glyph-name="Ntilde" unicode="&#xd1;" horiz-adv-x="1474" 
d="M788 1780q36 -28 41 -31q12 -6 23 -6q24 0 37 22q12 21 18 74h172q-9 -140 -61 -207t-150 -67q-39 0 -73 12q-32 11 -80 53q-30 30 -43 35q-15 6 -31 6q-34 0 -49 -24q-15 -21 -21 -76h-172q9 141 66 209q56 71 160 71q45 0 77 -14q36 -13 86 -57zM426 0h-252v1440h254
l619 -989v989h253v-1440h-258l-616 985v-985z" />
    <glyph glyph-name="Ograve" unicode="&#xd2;" horiz-adv-x="1693" 
d="M725 1563l-170 301h248l166 -301h-244zM86 721l-2 -2q0 317 215 532t545 215q329 0 547 -215q217 -214 217 -530q0 -319 -217 -533q-218 -215 -547 -215q-328 0 -543 215t-215 533zM1325 719v-2q0 213 -137 350q-138 141 -344 141q-207 0 -342 -141t-135 -350
q0 -211 135 -352q136 -142 344 -142t344 142q135 141 135 354z" />
    <glyph glyph-name="Oacute" unicode="&#xd3;" horiz-adv-x="1693" 
d="M973 1563h-246l168 301h248zM86 721l-2 -2q0 317 215 532t545 215q329 0 547 -215q217 -214 217 -530q0 -319 -217 -533q-218 -215 -547 -215q-328 0 -543 215t-215 533zM1325 719v-2q0 213 -137 350q-138 141 -344 141q-207 0 -342 -141t-135 -350q0 -211 135 -352
q136 -142 344 -142t344 142q135 141 135 354z" />
    <glyph glyph-name="Ocircumflex" unicode="&#xd4;" horiz-adv-x="1693" 
d="M494 1563l219 301h268l219 -301h-227l-127 172l-129 -172h-223zM86 721l-2 -2q0 317 215 532t545 215q329 0 547 -215q217 -214 217 -530q0 -319 -217 -533q-218 -215 -547 -215q-328 0 -543 215t-215 533zM1325 719v-2q0 213 -137 350q-138 141 -344 141
q-207 0 -342 -141t-135 -350q0 -211 135 -352q136 -142 344 -142t344 142q135 141 135 354z" />
    <glyph glyph-name="Otilde" unicode="&#xd5;" horiz-adv-x="1693" 
d="M86 721l-2 -2q0 317 215 532t545 215q329 0 547 -215q217 -214 217 -530q0 -319 -217 -533q-218 -215 -547 -215q-328 0 -543 215t-215 533zM1325 719v-2q0 213 -137 350q-138 141 -344 141q-207 0 -342 -141t-135 -350q0 -211 135 -352q136 -142 344 -142t344 142
q135 141 135 354zM895 1776q36 -28 41 -31q12 -6 22 -6q24 0 37 22q13 23 19 74h172q-9 -139 -62 -207q-52 -67 -149 -67q-39 0 -74 12q-32 11 -80 53q-30 30 -43 35q-15 6 -30 6q-34 0 -50 -25q-14 -19 -20 -75h-172q9 142 65 209q56 71 160 71q46 0 78 -14q36 -13 86 -57z
" />
    <glyph glyph-name="Odieresis" unicode="&#xd6;" horiz-adv-x="1693" 
d="M86 721l-2 -2q0 317 215 532t545 215q329 0 547 -215q217 -214 217 -530q0 -319 -217 -533q-218 -215 -547 -215q-328 0 -543 215t-215 533zM1325 719v-2q0 213 -137 350q-138 141 -344 141q-207 0 -342 -141t-135 -350q0 -211 135 -352q136 -142 344 -142t344 142
q135 141 135 354zM813 1698q0 -54 -37 -94q-36 -39 -92 -39q-55 0 -94 39t-39 94q0 58 37 98q36 39 96 39q56 0 92 -39q37 -40 37 -98zM1145 1698q0 -54 -37 -94q-36 -39 -92 -39q-59 0 -98 39t-39 94q0 59 39 98t98 39q56 0 92 -39q37 -40 37 -98z" />
    <glyph glyph-name="multiply" unicode="&#xd7;" horiz-adv-x="1167" 
d="M285 272l-144 144l299 299l-297 295l146 145l297 -295l295 295l143 -145l-295 -295l297 -299l-145 -144l-297 297z" />
    <glyph glyph-name="Oslash" unicode="&#xd8;" horiz-adv-x="1697" 
d="M471 66l-104 -136h-275l209 265q-96 96 -156 237q-55 134 -55 287q0 317 215 532t545 215q106 0 201 -24q100 -24 178 -70l106 133h273l-207 -264q99 -99 155 -235t56 -287q0 -319 -217 -533q-218 -215 -547 -215q-101 0 -199 25q-100 24 -178 70zM852 1210l-2 -2
q-207 0 -342 -141t-135 -350q0 -89 24 -168q24 -80 78 -146l602 754q-59 30 -106 41q-58 12 -119 12zM850 223l4 -4q209 0 344 141t135 355q0 92 -26 166q-26 78 -80 145l-600 -754q55 -25 108 -36q60 -13 115 -13z" />
    <glyph glyph-name="Ugrave" unicode="&#xd9;" horiz-adv-x="1417" 
d="M588 1563l-170 301h248l165 -301h-243zM989 1440l268 -2v-953q0 -225 -155 -368q-156 -144 -395 -144q-234 0 -392 146q-153 144 -153 368v953h268v-944q0 -121 74 -195t194 -74q131 0 211 74t80 195v944z" />
    <glyph glyph-name="Uacute" unicode="&#xda;" horiz-adv-x="1417" 
d="M989 1440l268 -2v-953q0 -225 -155 -368q-156 -144 -395 -144q-234 0 -392 146q-153 144 -153 368v953h268v-944q0 -121 74 -195t194 -74q131 0 211 74t80 195v944zM831 1561h-245l168 301h247z" />
    <glyph glyph-name="Ucircumflex" unicode="&#xdb;" horiz-adv-x="1417" 
d="M354 1563l219 301h269l219 -301h-227l-127 172l-129 -172h-224zM989 1440l268 -2v-953q0 -225 -155 -368q-156 -144 -395 -144q-234 0 -392 146q-153 144 -153 368v953h268v-944q0 -121 74 -195t194 -74q131 0 211 74t80 195v944z" />
    <glyph glyph-name="Udieresis" unicode="&#xdc;" horiz-adv-x="1417" 
d="M989 1440l268 -2v-953q0 -225 -155 -368q-156 -144 -395 -144q-234 0 -392 146q-153 144 -153 368v953h268v-944q0 -121 74 -195t194 -74q131 0 211 74t80 195v944zM676 1700q0 -54 -37 -94q-36 -39 -92 -39q-55 0 -94 39t-39 94q0 58 37 98q36 39 96 39q56 0 92 -39
q37 -40 37 -98zM1008 1700q0 -54 -37 -94q-36 -39 -92 -39q-60 0 -99 39t-39 94q0 59 39 98t99 39q56 0 92 -39q37 -40 37 -98z" />
    <glyph glyph-name="Yacute" unicode="&#xdd;" horiz-adv-x="1333" 
d="M803 0h-268v502l-492 938h301l328 -649l338 649h280l-487 -922v-518zM811 1563h-246l168 301h248z" />
    <glyph glyph-name="Thorn" unicode="&#xde;" 
d="M174 1440l270 -2v-244h279q240 0 397 -127q154 -127 154 -338q0 -219 -154 -352q-149 -131 -399 -131h-279v-246h-268v1440zM709 956h-265v-475h265q125 0 209 66q79 64 79 178q0 109 -79 170t-209 61z" />
    <glyph glyph-name="germandbls" unicode="&#xdf;" horiz-adv-x="1280" 
d="M717 209l2 -6q108 0 172 67q63 63 63 179q0 99 -71 167t-176 68h-146v197h96q93 0 158 59q62 59 62 147q0 95 -64 156q-65 62 -166 62q-107 0 -174 -70t-67 -180v-1057h-256v1022q0 248 137 385q139 139 364 139q212 0 342 -112q135 -114 135 -295q0 -115 -45 -195
q-47 -82 -135 -129q125 -47 189 -149q67 -104 67 -234q0 -194 -129 -326q-128 -131 -315 -131q-59 0 -113 13q-45 12 -88 37v225q32 -22 68 -31q31 -8 90 -8z" />
    <glyph glyph-name="agrave" unicode="&#xe0;" horiz-adv-x="1130" 
d="M752 0l-2 129q-52 -76 -136 -117q-87 -41 -180 -41q-150 0 -246 84t-96 215q0 132 86 215q81 81 268 125l299 70v12q0 73 -51 115q-52 43 -135 43q-80 0 -133 -41q-54 -42 -66 -111h-245q9 158 135 263q125 104 311 104q205 0 320 -109q114 -108 114 -294v-662h-243z
M492 178h-3q104 0 179 78q73 76 73 182v54l-233 -54q-87 -21 -127 -55q-41 -35 -41 -86q0 -59 39 -88q42 -31 113 -31zM428 1165l-170 301h248l166 -301h-244z" />
    <glyph glyph-name="aacute" unicode="&#xe1;" horiz-adv-x="1130" 
d="M752 0l-2 129q-52 -76 -136 -117q-87 -41 -180 -41q-150 0 -246 84t-96 215q0 132 86 215q81 81 268 125l299 70v12q0 73 -51 115q-52 43 -135 43q-80 0 -133 -41q-54 -42 -66 -111h-245q9 158 135 263q125 104 311 104q205 0 320 -109q114 -108 114 -294v-662h-243z
M492 178h-3q104 0 179 78q73 76 73 182v54l-233 -54q-87 -21 -127 -55q-41 -35 -41 -86q0 -59 39 -88q42 -31 113 -31zM674 1165h-246l168 301h248z" />
    <glyph glyph-name="acircumflex" unicode="&#xe2;" horiz-adv-x="1130" 
d="M752 0l-2 129q-52 -76 -136 -117q-87 -41 -180 -41q-150 0 -246 84t-96 215q0 132 86 215q81 81 268 125l299 70v12q0 73 -51 115q-52 43 -135 43q-80 0 -133 -41q-54 -42 -66 -111h-245q9 158 135 263q125 104 311 104q205 0 320 -109q114 -108 114 -294v-662h-243z
M492 178h-3q104 0 179 78q73 76 73 182v54l-233 -54q-87 -21 -127 -55q-41 -35 -41 -86q0 -59 39 -88q42 -31 113 -31zM199 1165l219 301h268l219 -301h-227l-127 172l-129 -172h-223z" />
    <glyph glyph-name="atilde" unicode="&#xe3;" horiz-adv-x="1130" 
d="M752 0l-2 129q-52 -76 -136 -117q-87 -41 -180 -41q-150 0 -246 84t-96 215q0 132 86 215q81 81 268 125l299 70v12q0 73 -51 115q-52 43 -135 43q-80 0 -133 -41q-54 -42 -66 -111h-245q9 158 135 263q125 104 311 104q205 0 320 -109q114 -108 114 -294v-662h-243z
M492 178h-3q104 0 179 78q73 76 73 182v54l-233 -54q-87 -21 -127 -55q-41 -35 -41 -86q0 -59 39 -88q42 -31 113 -31zM602 1386q30 -24 41 -30q12 -6 23 -6q23 0 36 22q13 23 19 74h172q-9 -139 -62 -207t-149 -68q-37 0 -74 13q-32 11 -80 53q-30 30 -43 35q-15 6 -30 6
q-33 0 -49 -25q-15 -21 -21 -75h-172q9 139 66 208q57 72 159 72q46 0 78 -14q34 -13 86 -58z" />
    <glyph glyph-name="adieresis" unicode="&#xe4;" horiz-adv-x="1130" 
d="M752 0l-2 129q-52 -76 -136 -117q-87 -41 -180 -41q-150 0 -246 84t-96 215q0 132 86 215q81 81 268 125l299 70v12q0 73 -51 115q-52 43 -135 43q-80 0 -133 -41q-54 -42 -66 -111h-245q9 158 135 263q125 104 311 104q205 0 320 -109q114 -108 114 -294v-662h-243z
M492 178h-3q104 0 179 78q73 76 73 182v54l-233 -54q-87 -21 -127 -55q-41 -35 -41 -86q0 -59 39 -88q42 -31 113 -31zM518 1307q0 -55 -37 -95q-35 -38 -92 -38q-56 0 -94 38q-39 39 -39 95q0 58 37 98q36 39 96 39q56 0 92 -39q37 -40 37 -98zM850 1307q0 -55 -37 -95
q-35 -38 -92 -38q-60 0 -98 38q-39 39 -39 95q0 59 39 98t98 39q56 0 92 -39q37 -40 37 -98z" />
    <glyph glyph-name="aring" unicode="&#xe5;" horiz-adv-x="1130" 
d="M752 0l-2 129q-52 -76 -136 -117q-87 -41 -180 -41q-150 0 -246 84t-96 215q0 132 86 215q81 81 268 125l299 70v12q0 73 -51 115q-52 43 -135 43q-80 0 -133 -41q-54 -42 -66 -111h-245q9 158 135 263q125 104 311 104q205 0 320 -109q114 -108 114 -294v-662h-243z
M492 178h-3q104 0 179 78q73 76 73 182v54l-233 -54q-87 -21 -127 -55q-41 -35 -41 -86q0 -59 39 -88q42 -31 113 -31zM778 1364q0 -93 -67 -154t-162 -61q-96 0 -160 61q-65 62 -65 154q0 91 65 156q63 63 160 63q99 0 162 -63q67 -64 67 -156zM467 1364h-2q0 -35 24 -59
q25 -25 60 -25q36 0 61 25t25 59q0 36 -25 61t-61 25q-32 0 -57 -25t-25 -61z" />
    <glyph glyph-name="ae" unicode="&#xe6;" horiz-adv-x="1908" 
d="M1561 336l249 8q-53 -170 -190 -264q-140 -96 -328 -96q-141 0 -252 63q-114 64 -184 178q-49 -114 -154 -178q-100 -63 -241 -63q-170 0 -271 79q-100 78 -100 216q0 133 86 213q84 78 270 122l299 70v12q0 73 -51 115q-52 43 -135 43q-80 0 -133 -41q-54 -42 -66 -111
h-245q9 158 135 263q125 104 311 104q123 0 209 -45q90 -47 139 -135q68 86 172 133q106 47 215 47q238 0 387 -149q150 -150 150 -381v-80h-842q18 -126 101 -197q83 -74 202 -74q93 0 160 37q67 39 107 111zM1294 860v2q-105 0 -180 -57q-76 -58 -106 -160l575 -2
q-27 101 -104 160q-75 57 -185 57zM498 190l-4 3q101 0 174 73t73 170v68l-233 -53q-85 -20 -127 -56q-41 -35 -41 -86q0 -58 41 -88q42 -31 117 -31z" />
    <glyph glyph-name="ccedilla" unicode="&#xe7;" horiz-adv-x="1239" 
d="M635 1065l-12 -4q207 0 354 -123t182 -317h-256q-27 92 -102 149q-73 55 -174 55q-132 0 -217 -88q-86 -89 -86 -221t86 -221q85 -88 217 -88q101 0 178 59t104 154h254q-30 -174 -157 -301q-130 -124 -306 -144l-49 -77q105 -3 172 -64q66 -63 66 -162q0 -94 -74 -159
q-70 -64 -180 -64q-111 0 -180 57q-71 59 -80 154l180 2q3 -26 25 -45q21 -18 55 -18q33 0 55 22q23 23 23 55q0 35 -21 56q-22 22 -57 22q-30 0 -43 -8q-19 -8 -35 -31l-147 68l122 199q-203 30 -331 182q-127 151 -127 356q0 231 159 387q166 158 402 158z" />
    <glyph glyph-name="egrave" unicode="&#xe8;" horiz-adv-x="1241" 
d="M625 186l4 -4q92 0 159 37q67 39 107 111h250q-52 -169 -191 -264q-142 -97 -331 -97q-236 0 -394 158q-155 155 -155 391q0 228 159 387q160 160 394 160q237 0 387 -150q151 -151 151 -380v-82h-843q18 -120 100 -193q83 -74 203 -74zM631 848h4q-109 0 -184 -57
q-77 -59 -111 -160h580q-26 100 -105 160q-75 57 -184 57zM508 1163l-170 301h248l166 -301h-244z" />
    <glyph glyph-name="eacute" unicode="&#xe9;" horiz-adv-x="1241" 
d="M748 1167h-246l168 301h248zM625 186l4 -4q92 0 159 37q67 39 107 111h250q-52 -169 -191 -264q-142 -97 -331 -97q-236 0 -394 158q-155 155 -155 391q0 228 159 387q160 160 394 160q237 0 387 -150q151 -151 151 -380v-82h-843q18 -120 100 -193q83 -74 203 -74z
M631 848h4q-109 0 -184 -57q-77 -59 -111 -160h580q-26 100 -105 160q-75 57 -184 57z" />
    <glyph glyph-name="ecircumflex" unicode="&#xea;" horiz-adv-x="1241" 
d="M270 1167l219 301h269l219 -301h-227l-127 172l-129 -172h-224zM625 186l4 -4q92 0 159 37q67 39 107 111h250q-52 -169 -191 -264q-142 -97 -331 -97q-236 0 -394 158q-155 155 -155 391q0 228 159 387q160 160 394 160q237 0 387 -150q151 -151 151 -380v-82h-843
q18 -120 100 -193q83 -74 203 -74zM631 848h4q-109 0 -184 -57q-77 -59 -111 -160h580q-26 100 -105 160q-75 57 -184 57z" />
    <glyph glyph-name="edieresis" unicode="&#xeb;" horiz-adv-x="1241" 
d="M590 1309q0 -55 -37 -95q-35 -38 -92 -38q-56 0 -94 38q-39 39 -39 95q0 58 37 98q36 39 96 39q56 0 92 -39q37 -40 37 -98zM922 1309q0 -55 -37 -95q-35 -38 -92 -38q-61 0 -99 38q-39 39 -39 95q0 59 39 98t99 39q56 0 92 -39q37 -40 37 -98zM625 186l4 -4q92 0 159 37
q67 39 107 111h250q-52 -169 -191 -264q-142 -97 -331 -97q-236 0 -394 158q-155 155 -155 391q0 228 159 387q160 160 394 160q237 0 387 -150q151 -151 151 -380v-82h-843q18 -120 100 -193q83 -74 203 -74zM631 848h4q-109 0 -184 -57q-77 -59 -111 -160h580
q-26 100 -105 160q-75 57 -184 57z" />
    <glyph glyph-name="igrave" unicode="&#xec;" horiz-adv-x="559" 
d="M408 0h-256v1038h256v-1038zM158 1167l-170 301h248l165 -301h-243z" />
    <glyph glyph-name="iacute" unicode="&#xed;" horiz-adv-x="559" 
d="M401 1167h-245l168 301h247zM408 0h-256v1038h256v-1038z" />
    <glyph glyph-name="icircumflex" unicode="&#xee;" horiz-adv-x="559" 
d="M-76 1167l219 301h269l219 -301h-228l-127 172l-129 -172h-223zM408 0h-256v1038h256v-1038z" />
    <glyph glyph-name="idieresis" unicode="&#xef;" horiz-adv-x="559" 
d="M246 1309q0 -55 -37 -95q-35 -38 -92 -38q-56 0 -94 38q-39 39 -39 95q0 59 36 98t97 39q56 0 92 -39q37 -40 37 -98zM578 1309q0 -55 -37 -95q-35 -38 -92 -38q-61 0 -99 38q-39 39 -39 95q0 59 39 98t99 39q56 0 92 -39q37 -40 37 -98zM408 0h-256v1038h256v-1038z" />
    <glyph glyph-name="eth" unicode="&#xf0;" horiz-adv-x="1286" 
d="M76 514l4 4q0 218 149 367q151 151 369 151q96 0 164 -26q73 -27 129 -80q-19 71 -64 153q-48 84 -104 154l-234 -96v145l138 57q-47 47 -99 93q-6 5 -110 88h284q30 -20 56 -43l67 -58l222 99v-144l-123 -55q131 -155 202 -350q72 -201 72 -393q0 -256 -162 -430
q-163 -175 -399 -175q-233 0 -399 158q-162 155 -162 381zM946 518v4q0 127 -86 213t-219 86q-131 0 -217 -86t-86 -215q0 -131 86 -217t217 -86q133 0 219 86t86 215z" />
    <glyph glyph-name="ntilde" unicode="&#xf1;" horiz-adv-x="1234" 
d="M406 0l-259 2v1038h244v-135q56 77 139 121q82 43 183 43q173 0 278 -108t105 -287v-670h-256v602q0 107 -56 166t-155 59q-101 0 -162 -67t-61 -172v-592zM676 1391q36 -28 41 -31q12 -6 22 -6q24 0 37 22q13 23 19 74h172q-9 -139 -62 -207q-52 -67 -149 -67
q-40 0 -74 12q-32 11 -80 53q-30 30 -43 35q-15 6 -31 6q-33 0 -49 -25q-14 -19 -20 -75h-172q9 142 65 209q56 71 160 71q46 0 78 -14q36 -13 86 -57z" />
    <glyph glyph-name="ograve" unicode="&#xf2;" horiz-adv-x="1267" 
d="M76 520v-6q0 230 157 387q158 158 400 158q245 0 401 -156q160 -157 160 -387q0 -232 -160 -389q-156 -156 -401 -156q-242 0 -400 158q-157 157 -157 391zM940 514l4 -2q0 133 -88 221t-221 88q-132 0 -217 -88q-86 -89 -86 -221t86 -221q85 -88 217 -88t219 90
q86 89 86 221zM516 1159l-170 301h248l166 -301h-244z" />
    <glyph glyph-name="oacute" unicode="&#xf3;" horiz-adv-x="1267" 
d="M758 1167h-246l168 301h248zM76 520v-6q0 230 157 387q158 158 400 158q245 0 401 -156q160 -157 160 -387q0 -232 -160 -389q-156 -156 -401 -156q-242 0 -400 158q-157 157 -157 391zM940 514l4 -2q0 133 -88 221t-221 88q-132 0 -217 -88q-86 -89 -86 -221t86 -221
q85 -88 217 -88t219 90q86 89 86 221z" />
    <glyph glyph-name="ocircumflex" unicode="&#xf4;" horiz-adv-x="1267" 
d="M281 1167l219 301h268l219 -301h-227l-127 172l-129 -172h-223zM76 520v-6q0 230 157 387q158 158 400 158q245 0 401 -156q160 -157 160 -387q0 -232 -160 -389q-156 -156 -401 -156q-242 0 -400 158q-157 157 -157 391zM940 514l4 -2q0 133 -88 221t-221 88
q-132 0 -217 -88q-86 -89 -86 -221t86 -221q85 -88 217 -88t219 90q86 89 86 221z" />
    <glyph glyph-name="otilde" unicode="&#xf5;" horiz-adv-x="1267" 
d="M76 520v-6q0 230 157 387q158 158 400 158q245 0 401 -156q160 -157 160 -387q0 -232 -160 -389q-156 -156 -401 -156q-242 0 -400 158q-157 157 -157 391zM940 514l4 -2q0 133 -88 221t-221 88q-132 0 -217 -88q-86 -89 -86 -221t86 -221q85 -88 217 -88t219 90
q86 89 86 221zM688 1380q30 -24 41 -30q14 -7 23 -7q23 0 36 23t19 74h172q-9 -140 -61 -207q-53 -68 -150 -68q-37 0 -74 13q-32 11 -80 53q-30 30 -43 35q-15 6 -30 6q-33 0 -49 -25q-15 -21 -21 -76h-172q9 141 66 209q57 72 159 72q46 0 78 -14q34 -13 86 -58z" />
    <glyph glyph-name="odieresis" unicode="&#xf6;" horiz-adv-x="1267" 
d="M602 1309q0 -55 -37 -95q-35 -38 -92 -38q-56 0 -94 38q-39 39 -39 95q0 58 37 98q36 39 96 39q56 0 92 -39q37 -40 37 -98zM934 1309q0 -55 -37 -95q-35 -38 -92 -38q-60 0 -98 38q-39 39 -39 95q0 59 39 98t98 39q56 0 92 -39q37 -40 37 -98zM76 520v-6q0 230 157 387
q158 158 400 158q245 0 401 -156q160 -157 160 -387q0 -232 -160 -389q-156 -156 -401 -156q-242 0 -400 158q-157 157 -157 391zM940 514l4 -2q0 133 -88 221t-221 88q-132 0 -217 -88q-86 -89 -86 -221t86 -221q85 -88 217 -88t219 90q86 89 86 221z" />
    <glyph glyph-name="divide" unicode="&#xf7;" horiz-adv-x="1167" 
d="M745 1124l-4 -2q0 -65 -45 -110t-112 -45q-70 0 -117 47q-45 45 -45 110q0 68 45 113t117 45q71 0 116 -45t45 -113zM111 612v205h938v-205h-938zM741 307l-4 -2q0 -65 -45 -110t-112 -45q-70 0 -117 47q-45 45 -45 110q0 68 45 113t117 45q71 0 116 -45t45 -113z" />
    <glyph glyph-name="oslash" unicode="&#xf8;" horiz-adv-x="1275" 
d="M375 33l-80 -105h-217l151 201q-72 75 -112 176q-39 91 -39 209q0 229 158 387t399 158q75 0 139 -15q58 -12 129 -45l78 103h217l-156 -203q72 -72 115 -172q41 -103 41 -209q0 -232 -160 -389q-156 -156 -401 -156q-59 0 -139 17q-60 14 -123 43zM633 827v-2
q-133 0 -221 -88t-88 -221q0 -48 16 -104q16 -54 47 -90l371 481q-28 12 -60 18q-30 6 -65 6zM633 201l-2 2q131 0 221 90q88 88 88 221q0 59 -14 102q-14 47 -45 91l-371 -482q29 -13 59 -18q30 -6 64 -6z" />
    <glyph glyph-name="ugrave" unicode="&#xf9;" horiz-adv-x="1216" 
d="M594 207l-6 -2q102 0 160 67q57 63 57 174v592h258v-1038h-246v135q-52 -76 -131 -119t-176 -43q-167 0 -270 109t-103 287v669h256v-602q0 -103 53 -168q52 -61 148 -61zM473 1165l-170 301h248l166 -301h-244z" />
    <glyph glyph-name="uacute" unicode="&#xfa;" horiz-adv-x="1216" 
d="M725 1167h-246l168 301h248zM594 207l-6 -2q102 0 160 67q57 63 57 174v592h258v-1038h-246v135q-52 -76 -131 -119t-176 -43q-167 0 -270 109t-103 287v669h256v-602q0 -103 53 -168q52 -61 148 -61z" />
    <glyph glyph-name="ucircumflex" unicode="&#xfb;" horiz-adv-x="1216" 
d="M248 1167l219 301h268l219 -301h-227l-127 172l-129 -172h-223zM594 207l-6 -2q102 0 160 67q57 63 57 174v592h258v-1038h-246v135q-52 -76 -131 -119t-176 -43q-167 0 -270 109t-103 287v669h256v-602q0 -103 53 -168q52 -61 148 -61z" />
    <glyph glyph-name="udieresis" unicode="&#xfc;" horiz-adv-x="1216" 
d="M569 1309q0 -55 -37 -95q-35 -38 -92 -38q-56 0 -94 38q-39 39 -39 95q0 58 37 98q36 39 96 39q56 0 92 -39q37 -40 37 -98zM901 1309q0 -55 -37 -95q-35 -38 -92 -38q-60 0 -98 38q-39 39 -39 95q0 59 39 98t98 39q56 0 92 -39q37 -40 37 -98zM594 207l-6 -2
q102 0 160 67q57 63 57 174v592h258v-1038h-246v135q-52 -76 -131 -119t-176 -43q-167 0 -270 109t-103 287v669h256v-602q0 -103 53 -168q52 -61 148 -61z" />
    <glyph glyph-name="yacute" unicode="&#xfd;" horiz-adv-x="1122" 
d="M821 1038h266l-540 -1472h-258l147 411l-405 1061h272l260 -723zM686 1167h-246l168 301h248z" />
    <glyph glyph-name="thorn" unicode="&#xfe;" 
d="M768 1065h4q219 0 361 -154q141 -153 141 -389q0 -237 -144 -393t-368 -156q-109 0 -199 43q-91 43 -155 125v-575h-256v1952h256v-627q66 84 157 129q86 45 203 45zM1008 520l-4 -6q0 132 -86 221q-87 90 -218 90q-132 0 -217 -88q-86 -89 -86 -221q0 -134 86 -223
q85 -88 219 -88q133 0 220 90q86 89 86 225z" />
    <glyph glyph-name="ydieresis" unicode="&#xff;" horiz-adv-x="1122" 
d="M821 1038h266l-540 -1472h-258l147 411l-405 1061h272l260 -723zM528 1309q0 -56 -36 -95q-35 -38 -93 -38q-56 0 -94 38q-39 39 -39 95q0 58 37 98q36 39 96 39q57 0 93 -39t36 -98zM860 1309q0 -55 -37 -95q-35 -38 -92 -38q-60 0 -98 38q-39 39 -39 95q0 59 39 98
t98 39q56 0 92 -39q37 -40 37 -98z" />
    <glyph glyph-name="Amacron" unicode="&#x100;" horiz-adv-x="1415" 
d="M565 1440h287l530 -1440h-288l-105 301h-579l-105 -301h-274zM909 526l-209 602l-211 -602h420zM995 1606h-573v174h573v-174z" />
    <glyph glyph-name="amacron" unicode="&#x101;" horiz-adv-x="1130" 
d="M752 0l-2 129q-52 -76 -136 -117q-87 -41 -180 -41q-150 0 -246 84t-96 215q0 132 86 215q81 81 268 125l299 70v12q0 73 -51 115q-52 43 -135 43q-80 0 -133 -41q-54 -42 -66 -111h-245q9 158 135 263q125 104 311 104q205 0 320 -109q114 -108 114 -294v-662h-243z
M492 178h-3q104 0 179 78q73 76 73 182v54l-233 -54q-87 -21 -127 -55q-41 -35 -41 -86q0 -59 39 -88q42 -31 113 -31zM838 1210h-574v174h574v-174z" />
    <glyph glyph-name="Abreve" unicode="&#x102;" horiz-adv-x="1415" 
d="M565 1440h287l530 -1440h-288l-105 301h-579l-105 -301h-274zM909 526l-209 602l-211 -602h420zM707 1540l-5 -2q-141 0 -229 88q-92 89 -92 221h188q0 -64 37 -104q36 -39 99 -39q60 0 98 41q37 40 37 104h188q0 -132 -92 -221q-88 -88 -229 -88z" />
    <glyph glyph-name="abreve" unicode="&#x103;" horiz-adv-x="1130" 
d="M752 0l-2 129q-52 -76 -136 -117q-87 -41 -180 -41q-150 0 -246 84t-96 215q0 132 86 215q81 81 268 125l299 70v12q0 73 -51 115q-52 43 -135 43q-80 0 -133 -41q-54 -42 -66 -111h-245q9 158 135 263q125 104 311 104q205 0 320 -109q114 -108 114 -294v-662h-243z
M492 178h-3q104 0 179 78q73 76 73 182v54l-233 -54q-87 -21 -127 -55q-41 -35 -41 -86q0 -59 39 -88q42 -31 113 -31zM551 1145l-4 -2q-142 0 -230 88q-92 89 -92 221h189q0 -64 37 -104q36 -39 98 -39q60 0 98 41q37 40 37 104h188q0 -132 -92 -221q-88 -88 -229 -88z" />
    <glyph glyph-name="Aogonek" unicode="&#x104;" horiz-adv-x="1415" 
d="M565 1440h289l530 -1440h-98q-112 -131 -139 -174q-37 -58 -37 -105q0 -38 23 -61q20 -20 61 -20q24 0 51 6q23 6 49 22v-170q-45 -27 -80 -37q-40 -12 -86 -12q-100 0 -165 59q-66 60 -66 154q0 70 37 137q39 70 160 203l-105 299h-579l-105 -301h-274zM911 526
l-209 602l-210 -602h419z" />
    <glyph glyph-name="aogonek" unicode="&#x105;" horiz-adv-x="1130" 
d="M752 2v127q-52 -76 -136 -117q-87 -41 -180 -41q-150 0 -246 84t-96 215q0 132 86 215q81 81 269 125l299 70v12q0 72 -52 115t-135 43q-80 0 -133 -41q-54 -42 -66 -111h-245q9 158 135 263q125 104 311 104q205 0 320 -109q114 -108 114 -294v-662h-53
q-112 -131 -139 -174q-37 -58 -37 -105q0 -38 23 -61q20 -20 61 -20q24 0 51 6q23 6 49 22v-170q-45 -27 -80 -37q-40 -12 -86 -12q-100 0 -165 59q-66 60 -66 154q0 70 37 137q39 70 160 203zM494 178h-2q103 0 178 78q73 76 73 182v54l-233 -54q-87 -21 -127 -55
q-41 -35 -41 -86q0 -59 39 -88q42 -31 113 -31z" />
    <glyph glyph-name="Cacute" unicode="&#x106;" horiz-adv-x="1646" 
d="M1294 584l277 -2q-47 -271 -250 -441q-206 -170 -490 -170q-322 0 -534 215q-213 219 -213 533q0 311 213 530q212 215 534 215q279 0 482 -159q202 -159 258 -422h-287q-53 151 -172 239q-122 90 -281 90q-199 0 -331 -141q-133 -145 -133 -348q0 -207 133 -352
q133 -142 331 -142q168 0 297 97q125 94 166 258zM954 1561h-245l168 301h247z" />
    <glyph glyph-name="cacute" unicode="&#x107;" horiz-adv-x="1239" 
d="M756 1167h-246l168 301h248zM635 1065l-6 -2q207 0 354 -123t182 -317h-256q-27 92 -102 149q-73 55 -174 55q-132 0 -217 -88q-86 -89 -86 -221t86 -221q85 -88 217 -88q101 0 178 59t104 154h254q-35 -203 -182 -326q-143 -125 -352 -125q-236 0 -402 158
q-159 156 -159 391q0 231 159 387q166 158 402 158z" />
    <glyph glyph-name="Ccircumflex" unicode="&#x108;" horiz-adv-x="1646" 
d="M1294 584l277 -2q-47 -271 -250 -441q-206 -170 -490 -170q-322 0 -534 215q-213 219 -213 533q0 311 213 530q212 215 534 215q279 0 482 -159q202 -159 258 -422h-287q-53 151 -172 239q-122 90 -281 90q-199 0 -331 -141q-133 -145 -133 -348q0 -207 133 -352
q133 -142 331 -142q168 0 297 97q125 94 166 258zM477 1561l219 301h269l219 -301h-228l-127 172l-129 -172h-223z" />
    <glyph glyph-name="ccircumflex" unicode="&#x109;" horiz-adv-x="1239" 
d="M281 1167l219 301h268l219 -301h-227l-127 172l-129 -172h-223zM635 1065l-6 -2q207 0 354 -123t182 -317h-256q-27 92 -102 149q-73 55 -174 55q-132 0 -217 -88q-86 -89 -86 -221t86 -221q85 -88 217 -88q101 0 178 59t104 154h254q-35 -203 -182 -326
q-143 -125 -352 -125q-236 0 -402 158q-159 156 -159 391q0 231 159 387q166 158 402 158z" />
    <glyph glyph-name="Cdotaccent" unicode="&#x10a;" horiz-adv-x="1646" 
d="M983 1714h2q0 -61 -43 -104t-104 -43q-60 0 -103 43t-43 104q0 60 43 103t103 43q59 0 102 -43t43 -103zM1296 584l277 -2q-47 -271 -250 -441q-206 -170 -489 -170q-323 0 -535 215q-213 219 -213 533q0 311 213 530q212 215 535 215q278 0 481 -159q202 -159 258 -422
h-287q-53 151 -172 239q-122 90 -280 90q-200 0 -332 -141q-133 -145 -133 -348q0 -207 133 -352q133 -142 332 -142q167 0 296 97q125 94 166 258z" />
    <glyph glyph-name="cdotaccent" unicode="&#x10b;" horiz-adv-x="1239" 
d="M635 1065l-6 -2q207 0 354 -123t182 -317h-256q-27 92 -102 149q-73 55 -174 55q-132 0 -217 -88q-86 -89 -86 -221t86 -221q85 -88 217 -88q101 0 178 59t104 154h254q-35 -203 -182 -326q-143 -125 -352 -125q-236 0 -402 158q-159 156 -159 391q0 231 159 387
q166 158 402 158zM774 1319h2q0 -62 -43 -105t-104 -43q-60 0 -103 43t-43 105q0 59 43 102t103 43q59 0 102 -43t43 -102z" />
    <glyph glyph-name="Ccaron" unicode="&#x10c;" horiz-adv-x="1646" 
d="M1294 584l277 -2q-47 -271 -250 -441q-206 -170 -490 -170q-322 0 -534 215q-213 219 -213 533q0 311 213 530q212 215 534 215q279 0 482 -159q202 -159 258 -422h-287q-53 151 -172 239q-122 90 -281 90q-199 0 -331 -141q-133 -145 -133 -348q0 -207 133 -352
q133 -142 331 -142q168 0 297 97q125 94 166 258zM473 1862h223l129 -172l127 172h228l-219 -301h-269z" />
    <glyph glyph-name="ccaron" unicode="&#x10d;" horiz-adv-x="1239" 
d="M279 1468h223l129 -172l127 172h227l-219 -301h-268zM635 1065l-6 -2q207 0 354 -123t182 -317h-256q-27 92 -102 149q-73 55 -174 55q-132 0 -217 -88q-86 -89 -86 -221t86 -221q85 -88 217 -88q101 0 178 59t104 154h254q-35 -203 -182 -326q-143 -125 -352 -125
q-236 0 -402 158q-159 156 -159 391q0 231 159 387q166 158 402 158z" />
    <glyph glyph-name="Dcaron" unicode="&#x10e;" horiz-adv-x="1564" 
d="M702 0l-530 -2v1440h528q338 0 557 -195q216 -195 216 -520q0 -328 -216 -526q-215 -197 -555 -197zM440 1184v-932h252q224 0 363 127q135 126 135 344q0 215 -135 338t-363 123h-252zM367 1862h223l129 -172l127 172h227l-219 -301h-268z" />
    <glyph glyph-name="dcaron" unicode="&#x10f;" horiz-adv-x="1490" 
d="M1628 1298l-110 -266h-154l96 230q-49 16 -74 53q-26 33 -26 84q0 61 43 104t106 43q64 0 107 -43t43 -104q0 -18 -6 -39q-5 -16 -25 -62zM580 -27l-2 -2q-219 0 -361 154q-141 153 -141 389q0 238 143 393q144 156 365 156q110 0 200 -43q94 -46 158 -125v621h256v-1518
h-242v166q-63 -90 -161 -141q-100 -50 -215 -50zM340 516v-2q0 -132 86 -221q85 -88 219 -88q130 0 217 90q86 89 86 221t-86 221q-87 90 -217 90q-134 0 -219 -88q-86 -89 -86 -223z" />
    <glyph glyph-name="Dcroat" unicode="&#x110;" horiz-adv-x="1603" 
d="M741 0l-530 -2v618h-170v197h170v625h528q338 0 557 -195q215 -194 215 -520q0 -329 -215 -526t-555 -197zM479 616v-364h252q224 0 363 127q135 126 135 344q0 215 -135 338t-363 123h-252v-371h348v-197h-348z" />
    <glyph glyph-name="dcroat" unicode="&#x111;" 
d="M582 -27l-2 -2q-219 0 -361 154q-141 153 -141 389q0 238 143 393q144 156 365 156q110 0 200 -43q94 -46 158 -125v289h-362v188h362v144h256v-144h143v-188h-143v-1186h-242v166q-63 -90 -161 -141q-100 -50 -215 -50zM342 516v-2q0 -132 86 -221q85 -88 219 -88
q130 0 217 90q86 89 86 221t-86 221q-87 90 -217 90q-134 0 -219 -88q-86 -89 -86 -223z" />
    <glyph glyph-name="Emacron" unicode="&#x112;" horiz-adv-x="1198" 
d="M1090 0h-916v1440h905v-246h-637v-346h588v-234h-588v-368h648v-246zM915 1606h-573v174h573v-174z" />
    <glyph glyph-name="emacron" unicode="&#x113;" horiz-adv-x="1241" 
d="M625 186l4 -4q92 0 159 37q67 39 107 111h250q-52 -169 -191 -264q-142 -97 -331 -97q-236 0 -394 158q-155 155 -155 391q0 228 159 387q160 160 394 160q237 0 387 -150q151 -151 151 -380v-82h-843q18 -120 100 -193q83 -74 203 -74zM631 848h4q-109 0 -184 -57
q-77 -59 -111 -160h580q-26 100 -105 160q-75 57 -184 57zM920 1208h-574v174h574v-174z" />
    <glyph glyph-name="Ebreve" unicode="&#x114;" horiz-adv-x="1198" 
d="M1090 0h-916v1440h905v-246h-637v-346h588v-234h-588v-368h648v-246zM625 1540l-4 -2q-142 0 -230 88q-92 89 -92 221h188q0 -64 37 -104q36 -39 99 -39q60 0 98 41q37 40 37 104h188q0 -132 -92 -221q-88 -88 -229 -88z" />
    <glyph glyph-name="ebreve" unicode="&#x115;" horiz-adv-x="1241" 
d="M625 186l4 -4q92 0 159 37q67 39 107 111h250q-52 -169 -191 -264q-142 -97 -331 -97q-236 0 -394 158q-155 155 -155 391q0 228 159 387q160 160 394 160q237 0 387 -150q151 -151 151 -380v-82h-843q18 -120 100 -193q83 -74 203 -74zM631 848h4q-109 0 -184 -57
q-77 -59 -111 -160h580q-26 100 -105 160q-75 57 -184 57zM631 1143l-4 -2q-142 0 -230 88q-92 89 -92 221h189q0 -65 36 -104t99 -39q60 0 98 41q37 40 37 104h188q0 -132 -92 -221q-88 -88 -229 -88z" />
    <glyph glyph-name="Edotaccent" unicode="&#x116;" horiz-adv-x="1198" 
d="M776 1714h2q0 -61 -43 -104t-104 -43q-60 0 -103 43t-43 104q0 60 43 103t103 43q59 0 102 -43t43 -103zM1092 0h-916v1440h905v-246h-637v-346h588v-234h-588v-368h648v-246z" />
    <glyph glyph-name="edotaccent" unicode="&#x117;" horiz-adv-x="1241" 
d="M625 186l4 -4q92 0 159 37q67 39 107 111h250q-52 -169 -191 -264q-142 -97 -331 -97q-236 0 -394 158q-155 155 -155 391q0 228 159 387q160 160 394 160q237 0 387 -150q151 -151 151 -380v-82h-843q18 -120 100 -193q83 -74 203 -74zM631 848h4q-109 0 -184 -57
q-77 -59 -111 -160h580q-26 100 -105 160q-75 57 -184 57zM778 1317h2q0 -62 -43 -105t-104 -43q-60 0 -103 43t-43 105q0 59 43 102t103 43q59 0 102 -43t43 -102z" />
    <glyph glyph-name="Eogonek" unicode="&#x118;" horiz-adv-x="1198" 
d="M840 0l-662 2v1440h905v-246h-637v-346h588v-234h-588v-368h648v-246h-58q-112 -131 -139 -174q-37 -58 -37 -104q0 -39 23 -62q20 -20 61 -20q24 0 51 6q23 6 49 22v-170q-46 -27 -79 -37q-41 -12 -86 -12q-100 0 -166 60t-66 153q0 72 37 139q44 76 156 197z" />
    <glyph glyph-name="eogonek" unicode="&#x119;" horiz-adv-x="1241" 
d="M696 -20v-11q-28 -4 -34 -4h-39q-236 0 -394 158q-155 155 -155 391q0 228 159 387q160 160 394 160q237 0 387 -150q151 -151 151 -381v-81h-843q18 -120 100 -193q83 -74 203 -74q92 0 159 37q67 39 107 111h250q-14 -49 -43 -99q-24 -42 -74 -98q-160 -180 -209 -260
q-55 -88 -55 -154q0 -39 22 -61q20 -20 62 -20q25 0 49 6q25 6 47 22v-170q-38 -26 -74 -37q-40 -12 -86 -12q-99 0 -164 59t-65 154q0 74 31 147q26 65 114 173zM627 842h6q-108 0 -184 -58q-77 -59 -111 -159h577q-26 100 -104 159q-76 58 -184 58z" />
    <glyph glyph-name="Ecaron" unicode="&#x11a;" horiz-adv-x="1198" 
d="M1090 0h-916v1440h905v-246h-637v-346h588v-234h-588v-368h648v-246zM270 1864h224l129 -172l127 172h227l-219 -301h-269z" />
    <glyph glyph-name="ecaron" unicode="&#x11b;" horiz-adv-x="1241" 
d="M268 1468h224l129 -172l127 172h227l-219 -301h-269zM625 186l4 -4q92 0 159 37q67 39 107 111h250q-52 -169 -191 -264q-142 -97 -331 -97q-236 0 -394 158q-155 155 -155 391q0 228 159 387q160 160 394 160q237 0 387 -150q151 -151 151 -380v-82h-843
q18 -120 100 -193q83 -74 203 -74zM631 848h4q-109 0 -184 -57q-77 -59 -111 -160h580q-26 100 -105 160q-75 57 -184 57z" />
    <glyph glyph-name="Gcircumflex" unicode="&#x11c;" horiz-adv-x="1658" 
d="M477 1563l219 301h269l219 -301h-228l-127 172l-129 -172h-223zM1540 743l-10 -749h-225v217q-81 -118 -211 -180t-295 -62q-311 0 -514 215t-203 535q0 313 213 532q212 215 532 215q263 0 455 -143q194 -144 258 -381h-295q-54 129 -164 197q-115 71 -252 71
q-199 0 -331 -141q-131 -137 -131 -350q0 -214 133 -359q132 -141 342 -141q175 0 293 80q115 78 153 231h-459v213h711z" />
    <glyph glyph-name="gcircumflex" unicode="&#x11d;" horiz-adv-x="1292" 
d="M254 1167l219 301h268l220 -301h-228l-127 172l-129 -172h-223zM88 -47l252 2q3 -94 78 -148q73 -55 194 -55q131 0 201 70q74 71 74 186v193q-60 -69 -146 -111q-77 -39 -184 -39q-208 0 -344 142q-135 141 -135 362q0 223 135 367q136 145 348 145q106 0 191 -43
q86 -44 147 -123v137h242v-1007q0 -223 -142 -359q-141 -135 -385 -135q-223 0 -370 117q-147 120 -156 299zM344 559v2q0 -119 78 -203q76 -79 196 -79q121 0 197 79q78 84 78 201t-78 201q-77 80 -197 80q-119 0 -196 -80q-78 -84 -78 -201z" />
    <glyph glyph-name="Gbreve" unicode="&#x11e;" horiz-adv-x="1658" 
d="M1540 743l-10 -749h-225v217q-81 -118 -211 -180t-295 -62q-311 0 -514 215t-203 535q0 313 213 532q212 215 532 215q263 0 455 -143q194 -144 258 -381h-295q-54 129 -164 197q-115 71 -252 71q-199 0 -331 -141q-131 -137 -131 -350q0 -214 133 -359
q132 -141 342 -141q175 0 293 80q115 78 153 231h-459v213h711zM819 1534l-4 -2q-141 0 -229 88q-92 89 -92 221h188q0 -64 37 -104q36 -39 98 -39q60 0 98 41q37 40 37 104h189q0 -132 -92 -221q-88 -88 -230 -88z" />
    <glyph glyph-name="gbreve" unicode="&#x11f;" horiz-adv-x="1292" 
d="M88 -47l252 2q3 -94 78 -148q73 -55 194 -55q131 0 201 70q74 71 74 186v193q-60 -69 -146 -111q-77 -39 -184 -39q-208 0 -344 142q-135 141 -135 362q0 223 135 367q136 145 348 145q106 0 191 -43q86 -44 147 -123v137h242v-1007q0 -223 -142 -359
q-141 -135 -385 -135q-223 0 -370 117q-147 120 -156 299zM344 559v2q0 -119 78 -203q76 -79 196 -79q121 0 197 79q78 84 78 201t-78 201q-77 80 -197 80q-119 0 -196 -80q-78 -84 -78 -201zM606 1151l-4 -2q-141 0 -229 88q-92 89 -92 221h188q0 -64 37 -104
q36 -39 98 -39q60 0 98 41q37 40 37 104h189q0 -132 -92 -221q-88 -88 -230 -88z" />
    <glyph glyph-name="Gdotaccent" unicode="&#x120;" horiz-adv-x="1658" 
d="M981 1714h2q0 -61 -43 -104t-104 -43q-60 0 -103 43t-43 104q0 60 43 103t103 43q59 0 102 -43t43 -103zM1542 743l-10 -749h-225v217q-81 -118 -211 -180t-295 -62q-311 0 -514 215t-203 535q0 313 213 532q212 215 532 215q263 0 455 -143q194 -144 258 -381h-295
q-54 129 -164 197q-115 71 -252 71q-199 0 -331 -141q-131 -137 -131 -350q0 -214 133 -359q132 -141 342 -141q175 0 293 80q115 78 153 231h-459v213h711z" />
    <glyph glyph-name="gdotaccent" unicode="&#x121;" horiz-adv-x="1292" 
d="M88 -47l252 2q3 -94 78 -148q73 -55 194 -55q131 0 201 70q74 71 74 186v193q-60 -69 -146 -111q-77 -39 -184 -39q-208 0 -344 142q-135 141 -135 362q0 223 135 367q136 145 348 145q106 0 191 -43q86 -44 147 -123v137h242v-1007q0 -223 -142 -359
q-141 -135 -385 -135q-223 0 -370 117q-147 120 -156 299zM344 559v2q0 -119 78 -203q76 -79 196 -79q121 0 197 79q78 84 78 201t-78 201q-77 80 -197 80q-119 0 -196 -80q-78 -84 -78 -201zM752 1325h2q0 -61 -43 -104t-105 -43q-59 0 -102 43t-43 104q0 59 43 102t102 43
q60 0 103 -43t43 -102z" />
    <glyph glyph-name="uni0122" unicode="&#x122;" horiz-adv-x="1658" 
d="M934 -330l-107 -239h-137l84 180q-42 12 -65 49q-25 39 -25 78q0 59 37 96t96 37t96 -37t37 -94q0 -9 -4 -37q-4 -20 -12 -33zM1542 739l-10 -749h-225v217q-81 -118 -211 -180t-295 -62q-311 0 -514 215t-203 535q0 313 213 532q212 215 532 215q263 0 455 -143
q194 -144 258 -381h-295q-54 129 -164 197q-115 71 -252 71q-199 0 -331 -141q-131 -137 -131 -350q0 -214 133 -359q132 -141 342 -141q175 0 293 80q115 78 153 231h-459v213h711z" />
    <glyph glyph-name="uni0123" unicode="&#x123;" horiz-adv-x="1292" 
d="M487 1372l107 234h139l-86 -181q46 -13 66 -45q24 -34 24 -75q0 -58 -37 -95q-36 -36 -96 -36t-96 36q-37 37 -37 97q0 2 4 30q4 18 12 35zM84 -51l252 2q3 -94 78 -148q73 -55 194 -55q131 0 201 70q74 71 74 186v193q-60 -69 -146 -111q-77 -39 -184 -39
q-209 0 -344 141t-135 363q0 223 135 367q136 145 348 145q106 0 191 -43q86 -44 147 -123v137h242v-1007q0 -223 -142 -359q-141 -135 -385 -135q-223 0 -370 117q-147 120 -156 299zM340 555v2q0 -119 78 -203q77 -80 196 -80q120 0 197 80q78 84 78 201t-78 201
q-77 80 -197 80q-119 0 -196 -80q-78 -84 -78 -201z" />
    <glyph glyph-name="Hcircumflex" unicode="&#x124;" horiz-adv-x="1464" 
d="M442 0h-268v1440h268v-578h582v578h266v-1440h-266v608h-582v-608zM381 1563l219 301h268l219 -301h-227l-127 172l-129 -172h-223z" />
    <glyph glyph-name="hcircumflex" unicode="&#x125;" horiz-adv-x="1234" 
d="M-76 1647l219 301h269l219 -301h-228l-127 172l-129 -172h-223zM406 0l-254 2v1518h256v-598q52 70 133 108q78 37 172 37q172 0 278 -109q105 -108 105 -286v-670h-256v610q0 101 -56 160t-155 59q-101 0 -162 -67t-61 -172v-592z" />
    <glyph glyph-name="Hbar" unicode="&#x126;" horiz-adv-x="1542" 
d="M481 0h-268v1030h-162v193h162v217h268v-217h582v217h266v-217h162v-193h-162v-1030h-266v608h-582v-608zM481 1030v-168h582v168h-582z" />
    <glyph glyph-name="hbar" unicode="&#x127;" horiz-adv-x="1234" 
d="M406 0l-254 2v1186h-144v188h144v144h256v-144h362v-188h-362v-266q52 70 133 108q78 37 172 37q172 0 278 -109q105 -108 105 -286v-670h-256v610q0 101 -56 160t-155 59q-101 0 -162 -67t-61 -172v-592z" />
    <glyph glyph-name="Itilde" unicode="&#x128;" horiz-adv-x="614" 
d="M442 0h-268v1440h268v-1440zM356 1780q36 -28 41 -31q12 -6 23 -6q24 0 37 22q12 21 18 74h172q-9 -140 -61 -207t-150 -67q-40 0 -74 12q-30 11 -79 53q-30 30 -43 35q-15 6 -31 6q-34 0 -49 -24q-15 -21 -21 -76h-172q9 141 66 209q56 71 160 71q45 0 77 -14
q36 -13 86 -57z" />
    <glyph glyph-name="itilde" unicode="&#x129;" horiz-adv-x="559" 
d="M408 0h-256v1038h256v-1038zM330 1389q36 -28 41 -31q12 -6 22 -6q24 0 37 22q13 23 19 74h172q-9 -139 -62 -207q-52 -67 -149 -67q-39 0 -74 12q-32 11 -80 53q-30 30 -43 35q-15 6 -31 6q-33 0 -49 -25q-14 -19 -20 -75h-172q9 142 65 209q56 71 160 71q46 0 78 -14
q36 -13 86 -57z" />
    <glyph glyph-name="Imacron" unicode="&#x12a;" horiz-adv-x="614" 
d="M442 0h-268v1440h268v-1440zM596 1606h-573v174h573v-174z" />
    <glyph glyph-name="imacron" unicode="&#x12b;" horiz-adv-x="559" 
d="M408 0h-256v1038h256v-1038zM567 1212h-573v174h573v-174z" />
    <glyph glyph-name="Iogonek" unicode="&#x12e;" horiz-adv-x="614" 
d="M375 -332l2 -170q-45 -27 -80 -37q-41 -12 -86 -12q-101 0 -166 59t-65 154q0 72 36 137q39 70 160 203v1438h268v-1440h-77q-116 -136 -140 -174q-37 -58 -37 -105q0 -38 23 -61q20 -20 61 -20q25 0 52 6q23 6 49 22z" />
    <glyph glyph-name="iogonek" unicode="&#x12f;" horiz-adv-x="559" 
d="M113 1354l-4 -2q0 69 47 116q45 45 120 45q76 0 121 -45q47 -47 47 -116q0 -70 -47 -117q-45 -45 -121 -45q-71 0 -118 47q-45 45 -45 117zM348 -334l2 -170q-45 -27 -80 -37q-40 -12 -86 -12q-101 0 -166 59t-65 154q0 70 37 137q39 70 160 203v1036h256v-1038h-66
q-112 -131 -139 -174q-37 -58 -37 -105q0 -39 22 -61q20 -20 62 -20q24 0 51 6q23 6 49 22z" />
    <glyph glyph-name="Idotaccent" unicode="&#x130;" horiz-adv-x="614" 
d="M442 0h-268v1440h268v-1440zM457 1714h2q0 -61 -43 -104t-105 -43q-59 0 -102 43t-43 104q0 60 43 103t102 43q60 0 103 -43t43 -103z" />
    <glyph glyph-name="dotlessi" unicode="&#x131;" horiz-adv-x="559" 
d="M408 0h-256v1038h256v-1038z" />
    <glyph glyph-name="IJ" unicode="&#x132;" horiz-adv-x="1814" 
d="M442 0h-268v1440h268v-1440zM1384 1440l269 -2v-969q0 -219 -142 -358q-138 -138 -362 -138q-216 0 -356 140t-140 362h269q0 -115 61 -182q62 -68 170 -68q109 0 170 70t61 184v961z" />
    <glyph glyph-name="ij" unicode="&#x133;" horiz-adv-x="1132" 
d="M113 1354l-4 -2q0 69 47 116q45 45 120 45q76 0 121 -45q47 -47 47 -116q0 -70 -47 -117q-45 -45 -121 -45q-71 0 -118 47q-45 45 -45 117zM403 -2h-256v1038h256v-1038zM1008 1356h-2q0 -67 -45 -109q-46 -43 -117 -43q-70 0 -113 43t-43 109q0 67 43 110t115 43
q71 0 117 -43q45 -42 45 -110zM719 1036l256 2v-1097q0 -202 -98 -303t-291 -101h-49q-15 0 -43 4v226q15 0 24 -3q10 -2 23 -2q92 0 135 43t43 136v1095z" />
    <glyph glyph-name="Jcircumflex" unicode="&#x134;" horiz-adv-x="1198" 
d="M770 1440l268 -2v-969q0 -220 -141 -358q-138 -138 -362 -138q-217 0 -357 140q-139 139 -139 362h268q0 -114 62 -182t170 -68q109 0 170 70t61 184v961zM551 1561l219 301h268l219 -301h-227l-127 172l-129 -172h-223z" />
    <glyph glyph-name="jcircumflex" unicode="&#x135;" horiz-adv-x="573" 
d="M-59 1167l219 301h268l219 -301h-227l-127 172l-129 -172h-223zM166 1038l254 -2v-1097q0 -200 -96 -304q-94 -98 -293 -98h-49q-15 0 -43 4v226q21 -3 30 -3h19q92 0 135 43t43 136v1095z" />
    <glyph glyph-name="uni0136" unicode="&#x136;" horiz-adv-x="1296" 
d="M821 -330l-106 -239h-137l84 180q-43 13 -66 49q-25 39 -25 78q0 59 37 96t97 37q59 0 96 -37t37 -94q0 -9 -4 -37q-3 -17 -13 -33zM176 1436h268v-648l531 648h317l-577 -695l583 -745h-340l-514 663v-663h-268v1440z" />
    <glyph glyph-name="uni0137" unicode="&#x137;" horiz-adv-x="1101" 
d="M727 -330l-106 -239h-138l84 180q-42 12 -65 49q-25 39 -25 78q0 59 37 96t96 37q60 0 97 -37q36 -36 36 -94q0 -9 -4 -37q-4 -20 -12 -33zM408 -4h-256v1517h256v-905l344 426h297l-383 -465l452 -573h-315l-395 506v-506z" />
    <glyph glyph-name="kgreenlandic" unicode="&#x138;" horiz-adv-x="1101" 
d="M406 0h-256v1038h256v-426l344 426h297l-383 -465l452 -573h-315l-395 506v-506z" />
    <glyph glyph-name="Lacute" unicode="&#x139;" horiz-adv-x="1083" 
d="M432 1563h-246l168 301h248zM1051 0h-877v1440h268v-1194h609v-246z" />
    <glyph glyph-name="lacute" unicode="&#x13a;" horiz-adv-x="559" 
d="M403 1647h-245l168 301h247zM152 1518h256v-1518h-256v1518z" />
    <glyph glyph-name="uni013B" unicode="&#x13b;" horiz-adv-x="1083" 
d="M731 -330l-106 -239h-138l84 180q-42 12 -65 49q-25 39 -25 78q0 59 37 96t96 37q60 0 97 -37t37 -94q0 -2 -5 -37q-4 -20 -12 -33zM1053 -4h-877v1440h268v-1194h609v-246z" />
    <glyph glyph-name="uni013C" unicode="&#x13c;" horiz-adv-x="559" 
d="M397 -330l-106 -239h-137l84 180q-43 13 -66 49q-25 39 -25 78q0 59 37 96t97 37q59 0 96 -37t37 -94q0 -9 -4 -37q-3 -17 -13 -33zM154 1513h256v-1517h-256v1517z" />
    <glyph glyph-name="Lcaron" unicode="&#x13d;" horiz-adv-x="1095" 
d="M870 1298l-110 -266h-154l96 230q-48 15 -73 53q-27 35 -27 84q0 61 43 104t107 43q63 0 106 -43t43 -104q0 -18 -6 -39q-5 -16 -25 -62zM1049 0h-877v1440h268v-1194h609v-246z" />
    <glyph glyph-name="lcaron" unicode="&#x13e;" horiz-adv-x="698" 
d="M838 1298l-111 -266h-154l97 230q-49 16 -74 53q-27 35 -27 84q0 61 43 104t107 43q63 0 106 -43t43 -104q0 -18 -6 -39q-6 -22 -24 -62zM150 1518h256v-1518h-256v1518z" />
    <glyph glyph-name="Ldot" unicode="&#x13f;" horiz-adv-x="1112" 
d="M1051 0h-877v1440h268v-1194h609v-246zM1028 727l8 -2q0 -75 -51 -123q-52 -49 -129 -49t-129 49q-51 48 -51 123q0 78 49 127t127 49t127 -49t49 -125z" />
    <glyph glyph-name="ldot" unicode="&#x140;" horiz-adv-x="872" 
d="M152 1518h256v-1518h-256v1518zM895 727l8 -2q0 -75 -51 -123q-52 -49 -129 -49t-129 49q-51 48 -51 123q0 78 49 127t127 49t127 -49t49 -125z" />
    <glyph glyph-name="Lslash" unicode="&#x141;" horiz-adv-x="1153" 
d="M1118 0h-876v481l-164 -88v221l164 88v738h268v-594l297 158v-222l-297 -157v-379h608v-246z" />
    <glyph glyph-name="lslash" unicode="&#x142;" horiz-adv-x="788" 
d="M535 0h-256v635l-213 -115v217l213 113v668h256v-531l215 115v-215l-215 -115v-772z" />
    <glyph glyph-name="Nacute" unicode="&#x143;" horiz-adv-x="1474" 
d="M862 1563h-246l168 301h248zM426 0h-252v1440h254l619 -989v989h253v-1440h-258l-616 985v-985z" />
    <glyph glyph-name="nacute" unicode="&#x144;" horiz-adv-x="1234" 
d="M750 1167h-246l168 301h248zM406 0l-259 2v1038h244v-135q56 77 139 121q82 43 183 43q173 0 278 -108t105 -287v-670h-256v602q0 107 -56 166t-155 59q-101 0 -162 -67t-61 -172v-592z" />
    <glyph glyph-name="uni0145" unicode="&#x145;" horiz-adv-x="1474" 
d="M852 -330l-107 -239h-137l84 180q-42 12 -65 49q-25 39 -25 78q0 59 37 96t96 37t96 -37t37 -94q0 -9 -4 -37q-4 -20 -12 -33zM428 -4h-252v1440h254l619 -990v990h254v-1440h-259l-616 985v-985z" />
    <glyph glyph-name="uni0146" unicode="&#x146;" horiz-adv-x="1234" 
d="M741 -330l-106 -239h-137l84 180q-43 13 -66 49q-24 38 -24 78q0 60 36 96q37 37 97 37q59 0 96 -37t37 -94q0 -9 -4 -37q-3 -17 -13 -33zM408 -4l-258 2v1038h243v-135q56 77 139 121q82 43 183 43q172 0 278 -109q105 -108 105 -286v-670h-256v602q0 107 -56 166
t-155 59q-101 0 -162 -67t-61 -172v-592z" />
    <glyph glyph-name="Ncaron" unicode="&#x147;" horiz-adv-x="1474" 
d="M426 0h-252v1440h254l619 -989v989h253v-1440h-258l-616 985v-985zM383 1864h223l129 -172l127 172h228l-220 -301h-268z" />
    <glyph glyph-name="ncaron" unicode="&#x148;" horiz-adv-x="1234" 
d="M272 1468h224l129 -172l127 172h227l-219 -301h-268zM406 0l-259 2v1038h244v-135q56 77 139 121q82 43 183 43q173 0 278 -108t105 -287v-670h-256v602q0 107 -56 166t-155 59q-101 0 -162 -67t-61 -172v-592z" />
    <glyph glyph-name="napostrophe" unicode="&#x149;" horiz-adv-x="1234" 
d="M248 1378l-107 -239h-137l84 180q-42 12 -65 49q-25 39 -25 78q0 59 37 96t96 37t96 -37t37 -94q0 -9 -4 -37q-4 -19 -12 -33zM408 -4l-258 2v1038h243v-135q56 77 139 121q82 43 183 43q172 0 278 -109q105 -108 105 -286v-670h-256v602q0 107 -56 166t-155 59
q-101 0 -162 -67t-61 -172v-592z" />
    <glyph glyph-name="Omacron" unicode="&#x14c;" horiz-adv-x="1693" 
d="M86 721l-2 -2q0 317 215 532t545 215q329 0 547 -215q217 -214 217 -530q0 -319 -217 -533q-218 -215 -547 -215q-328 0 -543 215t-215 533zM1325 719v-2q0 213 -137 350q-138 141 -344 141q-207 0 -342 -141t-135 -350q0 -211 135 -352q136 -142 344 -142t344 142
q135 141 135 354zM1135 1602h-574v174h574v-174z" />
    <glyph glyph-name="omacron" unicode="&#x14d;" horiz-adv-x="1267" 
d="M922 1212h-574v174h574v-174zM76 520v-6q0 230 157 387q158 158 400 158q245 0 401 -156q160 -157 160 -387q0 -232 -160 -389q-156 -156 -401 -156q-242 0 -400 158q-157 157 -157 391zM940 514l4 -2q0 133 -88 221t-221 88q-132 0 -217 -88q-86 -89 -86 -221t86 -221
q85 -88 217 -88t219 90q86 89 86 221z" />
    <glyph glyph-name="Obreve" unicode="&#x14e;" horiz-adv-x="1693" 
d="M86 721l-2 -2q0 317 215 532t545 215q329 0 547 -215q217 -214 217 -530q0 -319 -217 -533q-218 -215 -547 -215q-328 0 -543 215t-215 533zM1325 719v-2q0 213 -137 350q-138 141 -344 141q-207 0 -342 -141t-135 -350q0 -211 135 -352q136 -142 344 -142t344 142
q135 141 135 354zM844 1536l-4 -2q-142 0 -230 88q-92 89 -92 221h189q0 -65 36 -104t99 -39q60 0 98 41q37 40 37 104h188q0 -132 -92 -221q-88 -88 -229 -88z" />
    <glyph glyph-name="obreve" unicode="&#x14f;" horiz-adv-x="1267" 
d="M76 520v-6q0 230 157 387q158 158 400 158q245 0 401 -156q160 -157 160 -387q0 -232 -160 -389q-156 -156 -401 -156q-242 0 -400 158q-157 157 -157 391zM940 514l4 -2q0 133 -88 221t-221 88q-132 0 -217 -88q-86 -89 -86 -221t86 -221q85 -88 217 -88t219 90
q86 89 86 221zM639 1139l-4 -2q-141 0 -229 88q-93 90 -93 221h189q0 -65 37 -105q35 -38 98 -38q61 0 98 40t37 105h189q0 -131 -93 -221q-88 -88 -229 -88z" />
    <glyph glyph-name="Ohungarumlaut" unicode="&#x150;" horiz-adv-x="1693" 
d="M719 1864h233l-143 -301h-231zM1028 1864h234l-144 -301h-231zM86 721l-2 -2q0 317 215 532t545 215q329 0 547 -215q217 -214 217 -530q0 -319 -217 -533q-218 -215 -547 -215q-328 0 -543 215t-215 533zM1325 719v-2q0 213 -137 350q-138 141 -344 141
q-207 0 -342 -141t-135 -350q0 -211 135 -352q136 -142 344 -142t344 142q135 141 135 354z" />
    <glyph glyph-name="ohungarumlaut" unicode="&#x151;" horiz-adv-x="1267" 
d="M506 1468h233l-143 -301h-231zM815 1468h234l-144 -301h-231zM76 520v-6q0 230 157 387q158 158 400 158q245 0 401 -156q160 -157 160 -387q0 -232 -160 -389q-156 -156 -401 -156q-242 0 -400 158q-157 157 -157 391zM940 514l4 -2q0 133 -88 221t-221 88
q-132 0 -217 -88q-86 -89 -86 -221t86 -221q85 -88 217 -88t219 90q86 89 86 221z" />
    <glyph glyph-name="OE" unicode="&#x152;" horiz-adv-x="2351" 
d="M2245 0h-920v174q-107 -99 -233 -149q-128 -52 -279 -52q-301 0 -518 220q-215 218 -215 528q0 308 215 526q216 219 518 219q158 0 283 -51q126 -50 233 -149v174h905v-246h-637v-346h588v-234h-588v-368h648v-246zM1323 721v-2q0 213 -137 350q-138 141 -344 141
q-207 0 -342 -141t-135 -350q0 -211 135 -352q136 -142 344 -142t344 142q135 141 135 354z" />
    <glyph glyph-name="oe" unicode="&#x153;" horiz-adv-x="2115" 
d="M76 520l-6 -6q0 220 157 385q157 160 381 160q143 0 264 -62q127 -66 195 -174q71 115 184 176q115 62 250 62q237 0 387 -150t150 -381v-81h-844q18 -120 100 -193q83 -74 203 -74q93 0 160 37q66 38 106 111h250q-52 -168 -186 -264q-133 -95 -326 -95q-133 0 -248 62
t-184 174q-74 -111 -192 -172q-121 -62 -265 -62q-224 0 -381 160q-155 155 -155 387zM1495 846h4q-106 0 -182 -58q-80 -61 -109 -159h576q-26 99 -105 159q-76 58 -184 58zM938 514l4 -2q0 133 -88 221t-221 88q-132 0 -217 -88q-86 -89 -86 -221t86 -221q85 -88 217 -88
t219 90q86 89 86 221z" />
    <glyph glyph-name="Racute" unicode="&#x154;" horiz-adv-x="1382" 
d="M442 0l-268 -4v1440h549q242 0 391 -119q152 -122 152 -322q0 -169 -101 -282q-102 -114 -282 -154l454 -559h-331l-435 543h-129v-543zM709 1202l-267 -2v-444h267q124 0 200 61q78 63 78 166q0 102 -76 160q-77 59 -202 59zM823 1556h-245l167 302h248z" />
    <glyph glyph-name="racute" unicode="&#x155;" horiz-adv-x="804" 
d="M590 1167h-246l168 301h248zM694 817l-2 -4q-134 0 -211 -86q-75 -81 -75 -227v-504h-256v1038h243v-184q52 97 133 151q85 54 183 54h30q21 0 25 -2v-244l-33 6q-14 2 -37 2z" />
    <glyph glyph-name="uni0156" unicode="&#x156;" horiz-adv-x="1382" 
d="M838 -330l-107 -239h-137l84 180q-43 13 -66 49q-24 38 -24 78q0 59 37 96t96 37t96 -37t37 -94q0 -9 -4 -37q-4 -20 -12 -33zM444 -4l-268 -4v1440h549q242 0 391 -119q152 -122 152 -322q0 -169 -101 -282q-102 -114 -282 -154l454 -559h-331l-435 543h-129v-543z
M711 1198l-267 -2v-444h267q124 0 200 61q78 63 78 166q0 102 -76 160q-77 59 -202 59z" />
    <glyph glyph-name="uni0157" unicode="&#x157;" horiz-adv-x="804" 
d="M395 -330l-106 -239h-137l84 180q-43 13 -66 49q-25 39 -25 78q0 59 37 96t97 37q59 0 96 -37t37 -94q0 -9 -4 -37q-3 -17 -13 -33zM696 813l-2 -4q-134 0 -211 -86q-75 -81 -75 -227v-504h-256v1038h243v-184q52 97 133 151q85 54 183 54h30q21 0 25 -2v-244l-33 6
q-14 2 -37 2z" />
    <glyph glyph-name="Rcaron" unicode="&#x158;" horiz-adv-x="1382" 
d="M442 0l-268 -4v1440h549q242 0 391 -119q152 -122 152 -322q0 -169 -101 -282q-102 -114 -282 -154l454 -559h-331l-435 543h-129v-543zM709 1202l-267 -2v-444h267q124 0 200 61q78 63 78 166q0 102 -76 160q-77 59 -202 59zM342 1858h223l129 -172l127 172h228
l-220 -302h-268z" />
    <glyph glyph-name="rcaron" unicode="&#x159;" horiz-adv-x="804" 
d="M111 1468h223l129 -172l127 172h227l-219 -301h-268zM694 817l-2 -4q-134 0 -211 -86q-75 -81 -75 -227v-504h-256v1038h243v-184q52 97 133 151q85 54 183 54h30q21 0 25 -2v-244l-33 6q-14 2 -37 2z" />
    <glyph glyph-name="Sacute" unicode="&#x15a;" horiz-adv-x="1265" 
d="M625 1466l-4 2q235 0 372 -122q140 -125 152 -345h-277q-6 116 -69 173q-65 59 -181 59q-103 0 -165 -45q-64 -46 -64 -123q0 -68 39 -107q38 -38 147 -73l224 -66q201 -59 286 -153q86 -95 86 -242q0 -212 -141 -332q-137 -119 -383 -119q-261 0 -411 129t-156 367h272
q3 -125 80 -193q76 -67 209 -67q126 0 193 49t67 145q0 66 -43 109q-42 42 -170 80l-207 61q-192 58 -276 154q-82 94 -82 246q0 185 141 299q144 114 361 114zM743 1565h-245l168 301h247z" />
    <glyph glyph-name="sacute" unicode="&#x15b;" horiz-adv-x="1040" 
d="M647 1167h-246l168 301h248zM522 1065l-2 2q185 0 297 -86q111 -86 123 -248h-262q-3 69 -43 103t-119 34q-71 0 -110 -26q-44 -27 -44 -74q0 -45 31 -70q32 -25 127 -45l103 -22q180 -40 260 -113q75 -72 75 -198q0 -161 -116 -252q-119 -93 -314 -93q-213 0 -338 93
q-123 91 -129 268h269q3 -78 51 -123q49 -43 139 -43q81 0 129 31q47 30 47 90q0 47 -30 74q-39 30 -113 47l-123 28q-176 43 -254 115q-74 71 -74 191q0 146 117 231q118 86 303 86z" />
    <glyph glyph-name="Scircumflex" unicode="&#x15c;" horiz-adv-x="1265" 
d="M625 1466l-4 2q235 0 372 -122q140 -125 152 -345h-277q-6 116 -69 173q-65 59 -181 59q-103 0 -165 -45q-64 -46 -64 -123q0 -68 39 -107q38 -38 147 -73l224 -66q201 -59 286 -153q86 -95 86 -242q0 -212 -141 -332q-137 -119 -383 -119q-261 0 -411 129t-156 367h272
q3 -125 80 -193q76 -67 209 -67q126 0 193 49t67 145q0 66 -43 109q-42 42 -170 80l-207 61q-192 58 -276 154q-82 94 -82 246q0 185 141 299q144 114 361 114zM266 1565l219 301h269l219 -301h-228l-127 172l-129 -172h-223z" />
    <glyph glyph-name="scircumflex" unicode="&#x15d;" horiz-adv-x="1040" 
d="M170 1167l219 301h268l220 -301h-228l-127 172l-129 -172h-223zM522 1065l-2 2q185 0 297 -86q111 -86 123 -248h-262q-3 69 -43 103t-119 34q-71 0 -110 -26q-44 -27 -44 -74q0 -45 31 -70q32 -25 127 -45l103 -22q180 -40 260 -113q75 -72 75 -198q0 -161 -116 -252
q-119 -93 -314 -93q-213 0 -338 93q-123 91 -129 268h269q3 -78 51 -123q49 -43 139 -43q81 0 129 31q47 30 47 90q0 47 -30 74q-39 30 -113 47l-123 28q-176 43 -254 115q-74 71 -74 191q0 146 117 231q118 86 303 86z" />
    <glyph glyph-name="Scedilla" unicode="&#x15e;" horiz-adv-x="1265" 
d="M625 1466h-11q235 0 373 -123q140 -125 152 -344h-277q-6 115 -69 172q-66 60 -181 60q-104 0 -166 -45q-63 -45 -63 -123q0 -65 37 -105q36 -38 147 -73l224 -66q201 -59 286 -153q86 -95 86 -242q0 -195 -119 -311q-121 -118 -331 -136l-47 -75q105 -3 172 -64
q65 -62 65 -162q0 -94 -74 -159q-70 -64 -180 -64t-180 58q-71 59 -80 153l180 2q3 -26 25 -45q21 -18 55 -18t56 22t22 56q0 35 -20 55q-22 22 -58 22q-30 0 -43 -8q-19 -8 -35 -31l-147 68l121 197q-217 24 -338 151q-119 125 -125 338h272q3 -124 80 -192t209 -68
q126 0 193 49t67 146q0 64 -43 104q-42 39 -172 80l-207 61q-192 58 -276 154q-82 94 -82 246q0 185 141 299q144 114 361 114z" />
    <glyph glyph-name="scedilla" unicode="&#x15f;" horiz-adv-x="1040" 
d="M522 1065l-12 -8q185 0 297 -86q111 -86 123 -248h-262q-3 68 -43 102q-41 35 -119 35q-72 0 -111 -26q-43 -27 -43 -74q0 -45 31 -70q32 -25 127 -45l102 -22q179 -40 258 -113q78 -75 78 -199q0 -145 -94 -233q-96 -90 -264 -105l-47 -77q105 -3 172 -64
q65 -62 65 -162q0 -95 -73 -159q-70 -64 -181 -64t-180 57q-71 59 -80 154l180 2q3 -26 25 -45q21 -18 55 -18t56 22t22 55q0 36 -20 56q-22 22 -58 22q-30 0 -43 -8q-17 -7 -34 -31l-148 68l121 196q-171 21 -262 115q-93 93 -99 244h269q3 -78 51 -123q49 -43 139 -43
q81 0 129 31q47 30 47 90q0 47 -30 74q-31 28 -113 49l-123 28q-176 43 -254 115q-74 71 -74 191q0 146 117 231q118 86 303 86z" />
    <glyph glyph-name="Scaron" unicode="&#x160;" horiz-adv-x="1265" 
d="M625 1466l-4 2q235 0 372 -122q140 -125 152 -345h-277q-6 116 -69 173q-65 59 -181 59q-103 0 -165 -45q-64 -46 -64 -123q0 -68 39 -107q38 -38 147 -73l224 -66q201 -59 286 -153q86 -95 86 -242q0 -212 -141 -332q-137 -119 -383 -119q-261 0 -411 129t-156 367h272
q3 -125 80 -193q76 -67 209 -67q126 0 193 49t67 145q0 66 -43 109q-42 42 -170 80l-207 61q-192 58 -276 154q-82 94 -82 246q0 185 141 299q144 114 361 114zM264 1866h223l129 -172l127 172h228l-219 -301h-269z" />
    <glyph glyph-name="scaron" unicode="&#x161;" horiz-adv-x="1040" 
d="M168 1468h223l129 -172l127 172h227l-219 -301h-268zM522 1065l-2 2q185 0 297 -86q111 -86 123 -248h-262q-3 69 -43 103t-119 34q-71 0 -110 -26q-44 -27 -44 -74q0 -45 31 -70q32 -25 127 -45l103 -22q180 -40 260 -113q75 -72 75 -198q0 -161 -116 -252
q-119 -93 -314 -93q-213 0 -338 93q-123 91 -129 268h269q3 -78 51 -123q49 -43 139 -43q81 0 129 31q47 30 47 90q0 47 -30 74q-39 30 -113 47l-123 28q-176 43 -254 115q-74 71 -74 191q0 146 117 231q118 86 303 86z" />
    <glyph glyph-name="uni0162" unicode="&#x162;" horiz-adv-x="1138" 
d="M481 0l-51 -2v1194h-403v246h1073v-246h-404v-1194h-45l-61 -100q105 -3 172 -64q65 -62 65 -162q0 -95 -73 -159q-70 -64 -181 -64t-180 57q-71 59 -80 154l181 2q3 -27 24 -45t55 -18t56 22t22 55q0 36 -20 56q-22 22 -58 22q-30 0 -43 -8q-17 -7 -34 -31l-148 68z" />
    <glyph glyph-name="uni0163" unicode="&#x163;" horiz-adv-x="815" 
d="M213 1038l-8 308l256 59v-367h256v-229h-256v-449q0 -81 35 -122q34 -37 110 -37q32 0 74 10q31 8 72 31v-226q-41 -19 -93 -32q-50 -13 -98 -13l-45 -73q105 -3 172 -64q66 -63 66 -162q0 -94 -74 -159q-70 -64 -180 -64q-112 0 -181 57q-70 58 -79 154l180 2
q3 -27 24 -45t56 -18q33 0 55 22q23 23 23 55q0 35 -21 56q-22 22 -57 22q-30 0 -43 -8q-19 -8 -35 -31l-148 68l132 213q-95 35 -144 119q-49 85 -49 225v469h-166v229h166z" />
    <glyph glyph-name="Tcaron" unicode="&#x164;" horiz-adv-x="1138" 
d="M702 0h-266v1194h-403v246h1073v-246h-404v-1194zM211 1864h223l129 -172l127 172h228l-220 -301h-268z" />
    <glyph glyph-name="tcaron" unicode="&#x165;" horiz-adv-x="815" 
d="M897 1454l-111 -266h-153l96 229q-49 16 -74 53q-26 33 -26 84q0 62 43 105t106 43q64 0 107 -43t43 -105q0 -17 -6 -38q-5 -16 -25 -62zM211 1038v308l256 59v-367h256v-229h-256v-449q0 -81 35 -122q34 -37 110 -37q32 0 74 10q31 8 72 31v-226q-42 -19 -96 -32
t-107 -13q-172 0 -258 92t-86 277v469h-166v229h166z" />
    <glyph glyph-name="Tbar" unicode="&#x166;" horiz-adv-x="1187" 
d="M727 0h-266v641h-283v195h283v358h-404v246h1073v-246h-403v-358h279v-195h-279v-641z" />
    <glyph glyph-name="tbar" unicode="&#x167;" horiz-adv-x="831" 
d="M479 639h254v-188h-254v-91q0 -81 35 -122q34 -37 111 -37q31 0 73 10q31 8 72 31v-226q-42 -19 -96 -32t-107 -13q-172 0 -258 92t-86 277v111h-166v188h166v170h-166v229h166v308l256 59v-367h256v-229h-256v-170z" />
    <glyph glyph-name="Utilde" unicode="&#x168;" horiz-adv-x="1417" 
d="M989 1440l268 -2v-953q0 -225 -155 -368q-156 -144 -395 -144q-234 0 -392 146q-153 144 -153 368v953h268v-944q0 -121 74 -195t194 -74q131 0 211 74t80 195v944zM758 1778q36 -28 41 -31q12 -6 22 -6q24 0 37 22q13 23 19 74h172q-9 -139 -62 -207q-52 -67 -149 -67
q-39 0 -74 12q-32 11 -80 53q-30 30 -43 35q-15 6 -31 6q-34 0 -49 -24q-13 -19 -20 -76h-172q9 142 65 209q56 71 160 71q46 0 78 -14q36 -13 86 -57z" />
    <glyph glyph-name="utilde" unicode="&#x169;" horiz-adv-x="1216" 
d="M594 207l-6 -2q102 0 160 67q57 63 57 174v592h258v-1038h-246v135q-52 -76 -131 -119t-176 -43q-167 0 -270 109t-103 287v669h256v-602q0 -103 53 -168q52 -61 148 -61zM647 1386q30 -24 41 -30q12 -6 23 -6q24 0 37 22q12 21 18 74h172q-9 -140 -61 -207
q-53 -68 -150 -68q-37 0 -74 13q-32 11 -80 53q-30 30 -43 35q-15 6 -30 6q-33 0 -49 -25q-15 -21 -21 -75h-172q9 139 66 208q57 72 159 72q46 0 78 -14q34 -13 86 -58z" />
    <glyph glyph-name="Umacron" unicode="&#x16a;" horiz-adv-x="1417" 
d="M989 1440l268 -2v-953q0 -225 -155 -368q-156 -144 -395 -144q-234 0 -392 146q-153 144 -153 368v953h268v-944q0 -121 74 -195t194 -74q131 0 211 74t80 195v944zM995 1604h-573v174h573v-174z" />
    <glyph glyph-name="umacron" unicode="&#x16b;" horiz-adv-x="1216" 
d="M594 207l-6 -2q102 0 160 67q57 63 57 174v592h258v-1038h-246v135q-52 -76 -131 -119t-176 -43q-167 0 -270 109t-103 287v669h256v-602q0 -103 53 -168q52 -61 148 -61zM883 1210h-574v174h574v-174z" />
    <glyph glyph-name="Ubreve" unicode="&#x16c;" horiz-adv-x="1417" 
d="M989 1440l268 -2v-953q0 -225 -155 -368q-156 -144 -395 -144q-234 0 -392 146q-153 144 -153 368v953h268v-944q0 -121 74 -195t194 -74q131 0 211 74t80 195v944zM707 1538l-5 -2q-141 0 -229 88q-92 89 -92 221h188q0 -64 37 -104q36 -39 99 -39q60 0 98 41
q37 40 37 104h188q0 -132 -92 -221q-88 -88 -229 -88z" />
    <glyph glyph-name="ubreve" unicode="&#x16d;" horiz-adv-x="1216" 
d="M594 207l-6 -2q102 0 160 67q57 63 57 174v592h258v-1038h-246v135q-52 -76 -131 -119t-176 -43q-167 0 -270 109t-103 287v669h256v-602q0 -103 53 -168q52 -61 148 -61zM596 1145l-4 -2q-142 0 -230 88q-92 89 -92 221h189q0 -64 37 -104q36 -39 98 -39q60 0 98 41
q37 40 37 104h189q0 -131 -93 -221q-88 -88 -229 -88z" />
    <glyph glyph-name="Uring" unicode="&#x16e;" horiz-adv-x="1417" 
d="M936 1759q0 -91 -68 -153t-161 -62q-95 0 -160 62q-66 63 -66 153t66 156q63 63 160 63q98 0 161 -63q68 -65 68 -156zM625 1759h-2q0 -35 24 -59q25 -25 60 -25q36 0 61 25t25 59q0 37 -25 62q-24 24 -61 24q-34 0 -58 -24t-24 -62zM987 1440l268 -2v-953
q0 -225 -155 -368q-156 -144 -395 -144q-234 0 -392 146q-153 144 -153 368v953h268v-944q0 -121 74 -195t194 -74q131 0 211 74t80 195v944z" />
    <glyph glyph-name="uring" unicode="&#x16f;" horiz-adv-x="1216" 
d="M829 1366q0 -93 -67 -154t-162 -61q-96 0 -160 61q-65 62 -65 154q0 91 65 156q63 63 160 63q99 0 162 -63q67 -64 67 -156zM518 1366h-2q0 -34 25 -59t59 -25q37 0 62 25q24 24 24 59q0 37 -24 61q-25 25 -62 25q-32 0 -57 -25t-25 -61zM592 207l-6 -2q101 0 159 67
q58 64 58 174v592h258v-1038h-246v135q-52 -76 -131 -119t-176 -43q-167 0 -270 109t-103 287v669h256v-602q0 -103 53 -168q52 -61 148 -61z" />
    <glyph glyph-name="Uhungarumlaut" unicode="&#x170;" horiz-adv-x="1417" 
d="M580 1864h233l-143 -301h-232zM889 1864h233l-143 -301h-231zM989 1440l268 -2v-953q0 -225 -155 -368q-156 -144 -395 -144q-234 0 -392 146q-153 144 -153 368v953h268v-944q0 -121 74 -195t194 -74q131 0 211 74t80 195v944z" />
    <glyph glyph-name="uhungarumlaut" unicode="&#x171;" horiz-adv-x="1216" 
d="M594 207l-6 -2q102 0 160 67q57 63 57 174v592h258v-1038h-246v135q-52 -76 -131 -119t-176 -43q-167 0 -270 109t-103 287v669h256v-602q0 -103 53 -168q52 -61 148 -61zM467 1466h233l-143 -301h-231zM776 1466h234l-144 -301h-231z" />
    <glyph glyph-name="Uogonek" unicode="&#x172;" horiz-adv-x="1417" 
d="M989 1440l273 -2v-953q0 -105 -37 -192q-37 -88 -109 -166q-154 -160 -207 -242q-61 -91 -61 -164q0 -39 22 -61q20 -20 62 -20q24 0 51 6q23 6 49 22v-170q-45 -27 -80 -37q-40 -12 -86 -12q-99 0 -164 59t-65 154q0 83 33 148q33 70 118 172l-38 -7q-14 -2 -43 -2
q-234 0 -392 146q-153 144 -153 368v953h268v-944q0 -121 74 -195t194 -74q131 0 211 74t80 195v944z" />
    <glyph glyph-name="uogonek" unicode="&#x173;" horiz-adv-x="1216" 
d="M594 207l-4 -2q102 0 160 67q57 63 57 174v592h258v-1038h-55q-116 -136 -140 -174q-36 -56 -36 -105q0 -39 22 -61q20 -20 62 -20q24 0 51 6q23 6 49 22v-170q-45 -27 -80 -37q-41 -12 -86 -12q-101 0 -166 59t-65 154q0 72 36 137q39 70 160 203v133q-52 -76 -131 -119
t-176 -43q-167 0 -270 109t-103 287v669h256v-602q0 -103 53 -168q52 -61 148 -61z" />
    <glyph glyph-name="Wcircumflex" unicode="&#x174;" horiz-adv-x="2074" 
d="M692 1563l219 301h269l219 -301h-228l-127 172l-129 -172h-223zM745 0h-286l-416 1440h291l284 -1055l306 1055h247l299 -1047l289 1047h275l-420 -1440h-283l-291 969z" />
    <glyph glyph-name="wcircumflex" unicode="&#x175;" horiz-adv-x="1765" 
d="M532 1167l220 301h268l219 -301h-227l-127 172l-129 -172h-224zM645 0h-260l-352 1038h256l235 -721l238 721h246l239 -723l238 723h248l-355 -1038h-256l-239 698z" />
    <glyph glyph-name="Ycircumflex" unicode="&#x176;" horiz-adv-x="1333" 
d="M803 0h-268v502l-492 938h301l328 -649l338 649h280l-487 -922v-518zM334 1563l219 301h268l219 -301h-227l-127 172l-129 -172h-223z" />
    <glyph glyph-name="ycircumflex" unicode="&#x177;" horiz-adv-x="1122" 
d="M821 1038h266l-540 -1472h-258l147 411l-405 1061h272l260 -723zM209 1167l219 301h268l219 -301h-227l-127 172l-129 -172h-223z" />
    <glyph glyph-name="Ydieresis" unicode="&#x178;" horiz-adv-x="1333" 
d="M803 0h-268v502l-492 938h301l328 -649l338 649h280l-487 -922v-518zM655 1702q0 -54 -37 -94q-36 -39 -92 -39q-55 0 -94 39t-39 94q0 58 37 98q36 39 96 39q56 0 92 -39q37 -40 37 -98zM987 1702q0 -54 -37 -94q-36 -39 -92 -39q-59 0 -98 39t-39 94q0 59 39 98t98 39
q56 0 92 -39q37 -40 37 -98z" />
    <glyph glyph-name="Zacute" unicode="&#x179;" horiz-adv-x="1216" 
d="M1133 0h-1051v215l704 979h-690v246h1024v-230l-700 -964h713v-246zM733 1563h-246l168 301h248z" />
    <glyph glyph-name="zacute" unicode="&#x17a;" horiz-adv-x="1054" 
d="M651 1167h-245l167 301h248zM987 0h-921v172l567 637h-535v229h860v-182l-544 -627h573v-229z" />
    <glyph glyph-name="Zdotaccent" unicode="&#x17b;" horiz-adv-x="1216" 
d="M758 1714h2q0 -61 -43 -104t-105 -43q-59 0 -102 43t-43 104q0 60 43 103t102 43q60 0 103 -43t43 -103zM1135 0h-1051v215l704 979h-690v246h1024v-230l-700 -964h713v-246z" />
    <glyph glyph-name="zdotaccent" unicode="&#x17c;" horiz-adv-x="1054" 
d="M987 0h-921v172l567 637h-535v229h860v-182l-544 -627h573v-229zM674 1321h2q0 -61 -43 -104t-105 -43q-59 0 -102 43t-43 104q0 59 43 102t102 43q60 0 103 -43t43 -102z" />
    <glyph glyph-name="Zcaron" unicode="&#x17d;" horiz-adv-x="1216" 
d="M1133 0h-1051v215l704 979h-690v246h1024v-230l-700 -964h713v-246zM252 1864h223l129 -172l127 172h227l-219 -301h-268z" />
    <glyph glyph-name="zcaron" unicode="&#x17e;" horiz-adv-x="1054" 
d="M172 1468h223l129 -172l127 172h228l-220 -301h-268zM987 0h-921v172l567 637h-535v229h860v-182l-544 -627h573v-229z" />
    <glyph glyph-name="longs" unicode="&#x17f;" horiz-adv-x="595" 
d="M406 0l-254 -2v1141q0 201 96 305q94 98 293 98q26 0 80 -4q36 -3 75 -12v-226q-42 11 -61 13q-36 4 -51 4q-92 0 -135 -43t-43 -137v-1137z" />
    <glyph glyph-name="florin" unicode="&#x192;" horiz-adv-x="1146" 
d="M727 719l-127 -782q-38 -229 -131 -316q-94 -88 -272 -88q-37 0 -74 6q-11 3 -34.5 7.5t-35.5 7.5v225q21 -9 47 -12q40 -5 50 -5q84 0 131 41q44 41 59 140l129 776h-205v227h242l33 195q38 219 133 311t270 92q24 0 74 -4q35 -3 71 -12v-225q-17 6 -47 10q-32 4 -51 4
q-92 0 -131 -39q-44 -38 -59 -141l-33 -191h207v-227h-246z" />
    <glyph glyph-name="uni0218" unicode="&#x218;" horiz-adv-x="1265" 
d="M764 -330l-107 -239h-137l84 180q-42 12 -65 49q-25 39 -25 78q0 59 37 96t96 37t96 -37t37 -94q0 -9 -4 -37q-4 -20 -12 -33zM627 1462l-4 2q234 0 372 -123q140 -125 152 -344h-277q-6 115 -69 172q-66 60 -180 60q-104 0 -166 -45q-64 -46 -64 -123q0 -68 39 -107
q38 -38 148 -73l223 -66q201 -59 286 -153q87 -96 87 -242q0 -211 -142 -332q-137 -119 -383 -119q-261 0 -411 129t-156 367h272q3 -125 80 -193q76 -67 209 -67q126 0 193 49t67 145q0 66 -43 109q-42 42 -170 80l-207 61q-192 58 -276 154q-82 94 -82 246q0 185 141 299
q144 114 361 114z" />
    <glyph glyph-name="uni0219" unicode="&#x219;" horiz-adv-x="1040" 
d="M647 -330l-106 -239h-138l84 180q-42 12 -65 49q-25 39 -25 78q0 59 37 96t96 37q60 0 97 -37t37 -94q0 -2 -5 -37q-4 -20 -12 -33zM524 1061l-2 2q185 0 297 -86q111 -86 123 -248h-262q-3 68 -43 102q-41 35 -119 35q-71 0 -110 -26q-43 -27 -43 -74q0 -46 30 -70
q32 -25 127 -45l103 -22q180 -40 260 -113q76 -73 76 -199q0 -159 -117 -251q-119 -93 -314 -93q-212 0 -337 93q-124 92 -130 268h269q3 -78 51 -123q49 -43 139 -43q81 0 129 31q47 30 47 90q0 46 -30 73q-40 32 -113 48l-123 28q-176 43 -254 115q-74 71 -74 190
q0 147 117 232q118 86 303 86z" />
    <glyph glyph-name="uni021A" unicode="&#x21a;" horiz-adv-x="1138" 
d="M684 -330l-106 -239h-138l84 180q-42 12 -65 49q-25 39 -25 78q0 59 37 96t96 37q60 0 97 -37q36 -36 36 -94q0 -9 -4 -37q-4 -20 -12 -33zM705 -4h-267v1194h-403v246h1073v-246h-403v-1194z" />
    <glyph glyph-name="uni021B" unicode="&#x21b;" horiz-adv-x="815" 
d="M520 -330l-106 -239h-138l84 180q-42 12 -65 49q-25 39 -25 78q0 59 37 96t96 37q60 0 97 -37t37 -94q0 -2 -5 -37q-4 -20 -12 -33zM215 1034v307l256 60v-367h256v-229h-256v-449q0 -82 35 -123q33 -36 110 -36q32 0 74 10q31 8 72 31v-226q-42 -19 -96 -32t-107 -13
q-172 0 -258 92t-86 277v469h-166v229h166z" />
    <glyph glyph-name="uni0237" unicode="&#x237;" horiz-adv-x="573" 
d="M166 1038l254 -2v-1097q0 -200 -96 -304q-94 -98 -293 -98h-49q-15 0 -43 4v226q21 -3 30 -3h19q92 0 135 43t43 136v1095z" />
    <glyph glyph-name="circumflex" unicode="&#x2c6;" horiz-adv-x="835" 
d="M63 1167l220 301h268l219 -301h-227l-127 172l-129 -172h-224z" />
    <glyph glyph-name="caron" unicode="&#x2c7;" horiz-adv-x="870" 
d="M57 1468h224l129 -172l127 172h227l-219 -301h-269z" />
    <glyph glyph-name="uni02C9" unicode="&#x2c9;" horiz-adv-x="743" 
d="M659 1212h-573v174h573v-174z" />
    <glyph glyph-name="breve" unicode="&#x2d8;" horiz-adv-x="774" 
d="M387 1147l-4 -2q-141 0 -229 88q-93 90 -93 221h189q0 -64 37 -104q36 -39 98 -39q60 0 98 41q37 40 37 104h189q0 -131 -93 -221q-88 -88 -229 -88z" />
    <glyph glyph-name="dotaccent" unicode="&#x2d9;" horiz-adv-x="464" 
d="M379 1321h2q0 -61 -43 -104t-105 -43q-59 0 -102 43t-43 104q0 59 43 102t102 43q60 0 103 -43t43 -102z" />
    <glyph glyph-name="ring" unicode="&#x2da;" horiz-adv-x="591" 
d="M524 1366q0 -93 -67 -154t-162 -61q-96 0 -160 61q-65 62 -65 154q0 91 65 156q63 63 160 63q99 0 162 -63q67 -64 67 -156zM213 1366h-2q0 -34 25 -59t59 -25q36 0 61 25t25 59q0 36 -25 61t-61 25q-32 0 -57 -25t-25 -61z" />
    <glyph glyph-name="ogonek" unicode="&#x2db;" horiz-adv-x="573" 
d="M90 -338l6 -2q0 72 37 139q38 71 174 219h193q-122 -137 -160 -196q-37 -58 -37 -101q0 -38 23 -61q20 -20 61 -20q24 0 51 6q23 6 49 22v-170q-46 -27 -79 -37q-40 -12 -86 -12q-101 0 -166 59q-66 60 -66 154z" />
    <glyph glyph-name="tilde" unicode="&#x2dc;" horiz-adv-x="804" 
d="M451 1389q36 -28 41 -31q12 -6 22 -6q24 0 37 22q12 21 18 74h172q-9 -140 -61 -207t-150 -67q-38 0 -73 12q-32 11 -80 53q-30 30 -43 35q-15 6 -31 6q-33 0 -49 -25q-15 -21 -21 -75h-172q9 141 66 209q56 71 160 71q46 0 78 -14q36 -13 86 -57z" />
    <glyph glyph-name="hungarumlaut" unicode="&#x2dd;" horiz-adv-x="858" 
d="M229 1468h234l-144 -301h-231zM539 1468h233l-143 -301h-232z" />
    <glyph glyph-name="uni0394" unicode="&#x394;" horiz-adv-x="1343" 
d="M530 1440h287l461 -1243v-197h-1212v197zM666 1128l-314 -888h627z" />
    <glyph glyph-name="uni03A9" unicode="&#x3a9;" horiz-adv-x="1636" 
d="M719 0l-592 2v244h287q-160 112 -238 252q-78 141 -78 301q0 285 203 479q198 192 514 192t514 -192q203 -194 203 -479q0 -162 -80 -301t-235 -252h284v-244h-590v303q173 87 260 209q86 121 86 270q0 176 -127 303q-125 125 -317 125q-188 0 -313 -125
q-127 -127 -127 -303q0 -151 86 -272q87 -122 260 -209v-303z" />
    <glyph glyph-name="uni03BC" unicode="&#x3bc;" horiz-adv-x="1249" 
d="M616 207l-4 -4q102 0 160 67q57 63 57 174v592h258v-1038h-245v135q-52 -76 -131 -119t-174 -43q-39 0 -66 9q-32 10 -55 24v-438h-256v1472h256v-602q0 -103 53 -168q52 -61 147 -61z" />
    <glyph glyph-name="pi" unicode="&#x3c0;" horiz-adv-x="1374" 
d="M53 1038h1268v-233h-176v-805h-256v805h-404v-805h-256v805h-176v233z" />
    <glyph glyph-name="Wgrave" unicode="&#x1e80;" horiz-adv-x="2074" 
d="M926 1563l-170 301h248l165 -301h-243zM745 0h-286l-416 1440h291l284 -1055l306 1055h247l299 -1047l289 1047h275l-420 -1440h-283l-291 969z" />
    <glyph glyph-name="wgrave" unicode="&#x1e81;" horiz-adv-x="1765" 
d="M645 0h-260l-352 1038h256l235 -721l238 721h246l239 -723l238 723h248l-355 -1038h-256l-239 698zM764 1167l-170 301h248l166 -301h-244z" />
    <glyph glyph-name="Wacute" unicode="&#x1e82;" horiz-adv-x="2074" 
d="M1169 1563h-245l168 301h247zM745 0h-286l-416 1440h291l284 -1055l306 1055h247l299 -1047l289 1047h275l-420 -1440h-283l-291 969z" />
    <glyph glyph-name="wacute" unicode="&#x1e83;" horiz-adv-x="1765" 
d="M1010 1167h-246l168 301h248zM645 0h-260l-352 1038h256l235 -721l238 721h246l239 -723l238 723h248l-355 -1038h-256l-239 698z" />
    <glyph glyph-name="Wdieresis" unicode="&#x1e84;" horiz-adv-x="2074" 
d="M745 0h-286l-416 1440h291l284 -1055l306 1055h247l299 -1047l289 1047h275l-420 -1440h-283l-291 969zM1014 1702q0 -54 -37 -94q-36 -39 -92 -39q-55 0 -94 39t-39 94q0 59 36 98t97 39q56 0 92 -39q37 -40 37 -98zM1346 1702q0 -54 -37 -94q-36 -39 -92 -39
q-60 0 -99 39t-39 94q0 59 39 98t99 39q56 0 92 -39q37 -40 37 -98z" />
    <glyph glyph-name="wdieresis" unicode="&#x1e85;" horiz-adv-x="1765" 
d="M854 1309q0 -55 -37 -95q-35 -38 -92 -38q-56 0 -94 38q-39 39 -39 95q0 58 37 98q36 39 96 39q56 0 92 -39q37 -40 37 -98zM1186 1309q0 -55 -37 -95q-35 -38 -92 -38q-61 0 -99 38t-38 95q0 60 38 98q39 39 99 39q56 0 92 -39q37 -40 37 -98zM645 0h-260l-352 1038h256
l235 -721l238 721h246l239 -723l238 723h248l-355 -1038h-256l-239 698z" />
    <glyph glyph-name="uni1E9E" unicode="&#x1e9e;" horiz-adv-x="1484" 
d="M971 1200l-164 -2q-179 0 -283 -104t-104 -289v-805h-268v809q0 291 182 461t477 170h446v-211l-278 -391q181 -6 301 -123q121 -118 121 -289q0 -205 -135 -328t-353 -123q-99 0 -170 15q-70 15 -137 43v246q54 -34 129 -52q71 -18 146 -18q115 0 182 55t67 158
q0 88 -59 147q-60 60 -153 60q-41 0 -62 -8q-31 -9 -53 -25l-158 158z" />
    <glyph glyph-name="Ygrave" unicode="&#x1ef2;" horiz-adv-x="1333" 
d="M803 0h-268v502l-492 938h301l328 -649l338 649h280l-487 -922v-518zM565 1563l-170 301h248l166 -301h-244z" />
    <glyph glyph-name="ygrave" unicode="&#x1ef3;" horiz-adv-x="1122" 
d="M821 1038h266l-540 -1472h-258l147 411l-405 1061h272l260 -723zM440 1167l-170 301h248l166 -301h-244z" />
    <glyph glyph-name="endash" unicode="&#x2013;" horiz-adv-x="1161" 
d="M129 645h905v-221h-905v221z" />
    <glyph glyph-name="emdash" unicode="&#x2014;" horiz-adv-x="2134" 
d="M129 645h1878v-221h-1878v221z" />
    <glyph glyph-name="quoteleft" unicode="&#x2018;" horiz-adv-x="540" 
d="M289 1440l182 -2l-154 -320q58 -19 84 -63q31 -48 31 -99q0 -76 -49 -125t-125 -49q-77 0 -129 49q-51 48 -51 123q0 22 6 43l22 56z" />
    <glyph glyph-name="quoteright" unicode="&#x2019;" horiz-adv-x="552" 
d="M287 809l-189 -2l154 319q-45 16 -82 66q-31 48 -31 98q0 78 49 127t127 49q77 0 129 -49t52 -123q0 -18 -7 -43l-8 -24t-12 -31z" />
    <glyph glyph-name="quotesinglbase" unicode="&#x201a;" horiz-adv-x="550" 
d="M244 -336l-189 -2l154 320q-46 17 -82 65q-31 48 -31 98q0 78 49 127q50 50 127 50q76 0 129 -50q52 -49 52 -122q0 -20 -7 -44l-8 -24t-12 -31z" />
    <glyph glyph-name="quotedblleft" unicode="&#x201c;" horiz-adv-x="974" 
d="M289 1440l182 -2l-154 -320q58 -19 84 -63q31 -48 31 -99q0 -76 -49 -125t-125 -49q-77 0 -129 49q-51 48 -51 123q0 22 6 43l22 56zM719 1438l182 -2l-153 -320q57 -19 83 -63q31 -48 31 -99q0 -76 -49 -125t-125 -49q-77 0 -129 49q-51 48 -51 123q0 22 6 43l23 56z
" />
    <glyph glyph-name="quotedblright" unicode="&#x201d;" horiz-adv-x="985" 
d="M287 809l-189 -2l154 319q-45 16 -82 66q-31 48 -31 98q0 78 49 127t127 49q77 0 129 -49t52 -123q0 -18 -7 -43l-8 -24t-12 -31zM717 807l-189 -2l154 319q-45 16 -82 66q-31 48 -31 98q0 78 49 127t127 49q77 0 129 -49t52 -123q0 -22 -6 -43q-2 -6 -8.5 -24t-12.5 -31
z" />
    <glyph glyph-name="quotedblbase" unicode="&#x201e;" horiz-adv-x="983" 
d="M244 -336l-189 -2l154 320q-46 17 -82 65q-31 48 -31 98q0 78 49 127q50 50 127 50q76 0 129 -50q52 -49 52 -122q0 -20 -7 -44l-8 -24t-12 -31zM674 -338l-189 -2l154 320q-46 17 -82 65q-31 48 -31 98q0 78 49 127t127 49q77 0 129 -49t52 -123q0 -22 -6 -43
q-2 -6 -8.5 -24t-12.5 -31z" />
    <glyph glyph-name="dagger" unicode="&#x2020;" horiz-adv-x="976" 
d="M61 850v213h297v340l258 57v-397h297v-213h-297v-811l-258 -59v870h-297z" />
    <glyph glyph-name="daggerdbl" unicode="&#x2021;" horiz-adv-x="1044" 
d="M96 379v213h299v258h-299v213h299v340l256 57v-397h297v-213h-297v-258h297v-213h-297v-340l-256 -59v399h-299z" />
    <glyph glyph-name="bullet" unicode="&#x2022;" horiz-adv-x="802" 
d="M676 752h-2q0 -109 -78 -187q-76 -76 -190 -76q-115 0 -191 76t-76 187q0 113 74 190q73 76 195 76q116 0 192 -76t76 -190z" />
    <glyph glyph-name="ellipsis" unicode="&#x2026;" horiz-adv-x="1472" 
d="M449 147l8 -2q0 -74 -51 -122q-53 -50 -130 -50q-76 0 -129 50q-51 48 -51 122q0 78 49 127q50 50 127 50t127 -50t50 -125zM922 145l8 -2q0 -75 -51 -123q-52 -49 -129 -49t-129 49t-52 123q0 78 49 127t127 49t127 -49q50 -50 50 -125zM1397 143l8 -2q0 -75 -51 -123
q-52 -49 -129 -49t-129 49t-52 123q0 77 50 127q49 49 127 49t127 -49t49 -125z" />
    <glyph glyph-name="perthousand" unicode="&#x2030;" horiz-adv-x="2349" 
d="M768 1112v-2q0 -144 -98 -242t-250 -98q-154 0 -252 98t-98 244t98 240q104 96 252 96q146 0 250 -96q98 -94 98 -240zM1233 1438h211l-1104 -1440h-211zM254 1108v-2q0 -70 47 -117q45 -45 117 -45q70 0 117 47q45 45 45 117q0 74 -45 119q-46 49 -117 49t-117 -49
q-47 -53 -47 -119zM1509 326l2 4q0 -144 -98 -242t-250 -98q-148 0 -252 96q-98 94 -98 244q0 145 98 239q105 97 250 97q151 0 250 -99q98 -98 98 -241zM2294 330v4q0 -143 -99 -242q-98 -98 -249 -98q-148 0 -252 96q-99 94 -99 244q0 144 99 239q105 97 252 97
q150 0 249 -99t99 -241zM999 332l-4 -2q0 -70 47 -117q45 -45 117 -45q70 0 117 47t47 117q0 74 -45 119q-46 49 -117 49t-117 -49q-45 -45 -45 -119zM1776 330l-2 -2q0 -70 47 -117q45 -45 116 -45q70 0 117 47q45 45 45 117q0 74 -45 119q-46 49 -117 49q-70 0 -116 -49
q-45 -45 -45 -119z" />
    <glyph glyph-name="guilsinglleft" unicode="&#x2039;" horiz-adv-x="636" 
d="M301 72l-223 448l223 451h248l-223 -451l223 -448h-248z" />
    <glyph glyph-name="guilsinglright" unicode="&#x203a;" horiz-adv-x="636" 
d="M336 971l223 -449l-223 -450h-248l223 450l-223 449h248z" />
    <glyph glyph-name="fraction" unicode="&#x2044;" horiz-adv-x="323" 
d="M608 1440h211l-1104 -1440h-211z" />
    <glyph glyph-name="zero.superior" unicode="&#x2070;" horiz-adv-x="704" 
d="M631 1260h-4q0 -127 -76 -197t-203 -70t-203 70q-75 69 -75 197v221q0 122 77 190t203 68t203 -68q78 -69 78 -190v-221zM348 1571v-4q-47 0 -74 -27q-26 -26 -26 -74v-204q0 -48 26 -74q27 -27 74 -27q45 0 74 29q27 27 27 74v204q0 47 -27 74q-29 29 -74 29z" />
    <glyph glyph-name="four.superior" unicode="&#x2074;" horiz-adv-x="681" 
d="M47 1268l260 461h207l-256 -443h141v111l179 39v-150h53v-164h-53v-114h-179v114h-352v146z" />
    <glyph glyph-name="five.superior" unicode="&#x2075;" horiz-adv-x="638" 
d="M123 1729h409v-164h-266l-8 -99l41 7q10 2 29 2q118 0 182 -64q68 -65 68 -172t-74 -178q-70 -70 -189 -70q-113 0 -190 62t-86 164h184q9 -27 31 -43q21 -15 55 -15q39 0 64 25q24 24 24 59q0 38 -24 62t-62 24q-30 0 -43 -8q-17 -8 -30 -25l-152 21z" />
    <glyph glyph-name="six.superior" unicode="&#x2076;" horiz-adv-x="641" 
d="M326 995v-4q-118 0 -195 74q-78 75 -78 182q0 54 19 109q19 59 61 121l160 249h209l-166 -239h12q109 0 180 -68q70 -67 70 -170q0 -106 -80 -180t-192 -74zM231 1245l5 -4q0 -41 26 -67q27 -27 68 -27q39 0 65 29q25 28 25 67q0 41 -27 68q-28 28 -67 28q-42 0 -68 -26
q-27 -27 -27 -68z" />
    <glyph glyph-name="seven.superior" unicode="&#x2077;" horiz-adv-x="600" 
d="M352 1556h-303v173h506v-148l-264 -573h-201z" />
    <glyph glyph-name="eight.superior" unicode="&#x2078;" horiz-adv-x="675" 
d="M614 1221h-6q0 -98 -76 -162t-202 -64q-119 0 -197 66t-78 160q0 54 29 104q27 47 80 74q-36 28 -53 67q-19 43 -19 82q0 84 68 140q67 55 174 55q109 0 176 -55q68 -56 68 -140q0 -39 -19 -82q-17 -39 -53 -67q53 -27 80 -74q28 -48 28 -104zM252 1528l2 2q0 -29 22 -51
t56 -19q37 3 57 23q21 18 21 49q0 29 -23 49q-21 18 -59 18q-36 0 -56 -20t-20 -51zM233 1229h-2q0 -40 27 -64t74 -24t74 24q28 25 28 64q0 41 -26 67q-27 27 -74 27t-74 -27t-27 -67z" />
    <glyph glyph-name="nine.superior" unicode="&#x2079;" horiz-adv-x="641" 
d="M317 1741l-2 2q118 0 195 -74q78 -75 78 -180q0 -54 -19 -109q-18 -57 -61 -120l-160 -250h-209l166 239h-12q-109 0 -180 68q-70 67 -70 170q0 106 80 180t194 74zM410 1489l-4 -4q0 40 -27 67q-29 29 -68 29q-41 0 -65 -27q-25 -28 -25 -67q0 -41 27 -68q26 -26 67 -26
q40 0 68 28q27 27 27 68z" />
    <glyph glyph-name="zero.inferior" unicode="&#x2080;" horiz-adv-x="704" 
d="M631 -37h-4q0 -126 -76 -196t-203 -70t-203 70q-75 69 -75 196v221q0 123 77 191q76 67 203 67t203 -67q78 -69 78 -191v-221zM348 274v-4q-48 0 -74 -26t-26 -74v-205q0 -48 26 -74t74 -26q45 0 74 29q27 27 27 73v205q0 47 -27 74q-28 28 -74 28z" />
    <glyph glyph-name="one.inferior" unicode="&#x2081;" horiz-adv-x="448" 
d="M348 -289h-180v549h-139l43 172h276v-721z" />
    <glyph glyph-name="two.inferior" unicode="&#x2082;" horiz-adv-x="667" 
d="M604 -289l-534 -4v143l264 242q32 28 49 55q14 20 14 54q0 32 -20 49q-21 18 -55 18t-56 -22q-21 -21 -24 -56h-185q6 112 80 183q77 71 195 71q114 0 184 -61t70 -162q0 -60 -31 -117q-28 -53 -113 -131l-98 -90h260v-172z" />
    <glyph glyph-name="three.inferior" unicode="&#x2083;" horiz-adv-x="663" 
d="M55 -74l172 4q6 -35 31 -57q20 -20 61 -20q40 0 68 22q25 22 25 62q0 44 -27 65q-30 23 -80 23h-59v129h53q46 0 70 18t24 53q0 36 -18 54t-53 18t-56 -21t-24 -55h-181q6 102 80 164q73 61 191 61q115 0 182 -55q68 -56 68 -139q0 -52 -25 -94q-24 -40 -70 -64
q57 -22 84 -65q29 -50 29 -105q0 -95 -74 -160q-69 -63 -198 -63q-120 0 -193 61q-74 62 -80 164z" />
    <glyph glyph-name="four.inferior" unicode="&#x2084;" horiz-adv-x="681" 
d="M49 -29l260 461h207l-256 -442h141v110l179 39v-149h53v-164h-53v-115h-179v115h-352v145z" />
    <glyph glyph-name="five.inferior" unicode="&#x2085;" horiz-adv-x="638" 
d="M123 432h409v-164h-266l-8 -98l41 6q10 2 29 2q119 0 182 -63q68 -65 68 -172q0 -108 -74 -179q-69 -69 -189 -69q-114 0 -190 61q-77 62 -86 164h184q9 -27 31 -43q20 -14 55 -14q40 0 64 24t24 60q0 37 -24 61q-25 25 -62 25q-30 0 -43 -8q-17 -8 -30 -25l-152 20z" />
    <glyph glyph-name="six.inferior" unicode="&#x2086;" horiz-adv-x="643" 
d="M326 -301v-4q-118 0 -195 74q-78 75 -78 182q0 53 19 108q19 59 61 121l160 250h209l-166 -240h12q110 0 180 -67t70 -170q0 -106 -80 -180t-192 -74zM231 -51l5 -4q0 -42 26 -68q27 -27 68 -27q39 0 65 29q25 28 25 68t-27 67q-29 29 -67 29q-41 0 -68 -27t-27 -67z" />
    <glyph glyph-name="seven.inferior" unicode="&#x2087;" horiz-adv-x="598" 
d="M352 260h-303v172h506v-147l-264 -574h-201z" />
    <glyph glyph-name="eight.inferior" unicode="&#x2088;" horiz-adv-x="675" 
d="M614 -76h-6q0 -98 -76 -162q-75 -63 -202 -63q-120 0 -197 65q-78 66 -78 160q0 55 29 105q26 45 80 73q-35 27 -53 68q-19 43 -19 82q0 83 68 139q67 55 174 55q109 0 176 -55q68 -56 68 -139q0 -39 -19 -82q-18 -41 -53 -68q54 -28 80 -73q28 -48 28 -105zM252 231l2 2
q0 -29 22 -51q21 -21 56 -18q38 3 57 22q21 18 21 50q0 29 -23 49q-21 18 -59 18q-36 0 -56 -20t-20 -52zM233 -68h-2q0 -39 27 -63q28 -25 74 -25t74 25t28 63q0 42 -26 68q-27 27 -74 27t-74 -27t-27 -68z" />
    <glyph glyph-name="nine.inferior" unicode="&#x2089;" horiz-adv-x="641" 
d="M317 444l-2 2q119 0 195 -73q78 -75 78 -180q0 -54 -19 -109q-19 -59 -61 -121l-160 -250h-209l166 240h-12q-110 0 -180 67t-70 170q0 107 80 181q79 73 194 73zM410 193l-4 -5q0 41 -27 68q-29 29 -68 29q-41 0 -65 -27q-25 -28 -25 -68t27 -67t67 -27q39 0 68 29
q27 27 27 68z" />
    <glyph glyph-name="franc" unicode="&#x20a3;" horiz-adv-x="1820" 
d="M453 0h-269v1440h844v-246h-575v-363h526v-243h-526v-588zM1686 817l-3 -4q-133 0 -210 -86q-76 -82 -76 -227v-504h-256v1038h243v-184q51 96 134 151q85 54 182 54h31q20 0 24 -2v-244l-33 6q-14 2 -36 2z" />
    <glyph glyph-name="Euro" unicode="&#x20ac;" horiz-adv-x="1376" 
d="M506 666l305 -7v-180h-307q6 -122 74 -190t182 -68q118 0 186 68t68 194h268q0 -245 -143 -379q-144 -135 -381 -135q-231 0 -375 135t-150 377h-145v181h145v106h-145v180h145q6 244 150 379t375 135q237 0 381 -135q143 -134 143 -379h-268q0 122 -68 193
q-66 69 -184 69q-115 0 -182 -67q-68 -68 -74 -191h307v-180h-307v-106z" />
    <glyph glyph-name="uni2113" unicode="&#x2113;" horiz-adv-x="948" 
d="M227 424l-143 -84v246l139 80v407q0 182 94 283q94 104 254 104q149 0 238 -86q90 -87 90 -221q0 -157 -92 -293q-91 -134 -287 -262l-39 -25v-178q0 -106 31 -151q30 -43 102 -43q43 0 93 16q43 15 86 49v-231q-48 -34 -105 -49q-52 -15 -125 -15q-171 0 -254 99
q-82 94 -82 305v49zM582 1235l-2 -2q-50 0 -74 -37q-25 -39 -25 -102v-271q97 73 142 146q43 73 43 164q0 43 -23 73q-23 29 -61 29z" />
    <glyph glyph-name="trademark" unicode="&#x2122;" horiz-adv-x="1765" 
d="M453 662h-181v608h-206v170h593v-170h-206v-608zM909 662h-176v778h201l242 -473l247 473h193v-778h-174v452l-232 -452h-71l-230 458v-458z" />
    <glyph glyph-name="Omega" unicode="&#x2126;" horiz-adv-x="1636" 
d="M719 0l-592 2v244h287q-160 112 -238 252q-78 141 -78 301q0 285 203 479q198 192 514 192t514 -192q203 -194 203 -479q0 -162 -80 -301t-235 -252h284v-244h-590v303q173 87 260 209q86 121 86 270q0 176 -127 303q-125 125 -317 125q-188 0 -313 -125
q-127 -127 -127 -303q0 -151 86 -272q87 -122 260 -209v-303z" />
    <glyph glyph-name="estimated" unicode="&#x212e;" horiz-adv-x="1656" 
d="M844 102l-2 -2q169 0 311 86q141 87 219 236h166q-115 -216 -295 -332q-181 -117 -403 -117q-303 0 -531 220q-221 218 -221 528t221 528q227 219 533 219q332 0 538 -221q207 -227 207 -590h-1128v-413q80 -65 180 -105q98 -37 205 -37zM840 1331h-2q-107 0 -205 -37
q-105 -39 -178 -100v-408h757v418q-76 58 -174 94q-88 33 -198 33z" />
    <glyph glyph-name="uni2153" unicode="&#x2153;" horiz-adv-x="1501" 
d="M430 719h-180v549h-139l43 172h276v-721zM1163 1440h211l-1104 -1440h-211zM858 215l172 4q6 -35 31 -57q21 -21 61 -21q38 0 68 23q24 21 24 61q0 46 -26 66q-28 22 -80 22h-59v129h53q44 0 69 19t25 53q0 35 -18 53q-19 19 -54 19q-34 0 -55 -21q-22 -22 -25 -55h-180
q6 102 80 164q73 61 191 61q115 0 182 -55t67 -139q0 -54 -24 -95q-23 -39 -70 -63q56 -21 84 -66q29 -50 29 -104q0 -95 -74 -160q-69 -63 -199 -63q-119 0 -192 61q-74 62 -80 164z" />
    <glyph glyph-name="uni2154" unicode="&#x2154;" horiz-adv-x="1609" 
d="M627 719l-535 -4v143l264 242q34 30 50 55q14 20 14 53q0 31 -21 49q-22 19 -55 19q-32 0 -55 -23q-22 -22 -25 -55h-184q6 111 80 182q78 72 194 72q115 0 185 -61q69 -60 69 -162q0 -61 -30 -117q-28 -53 -113 -131l-98 -90h260v-172zM1284 1436h211l-1104 -1440h-211z
M979 211l172 4q6 -35 31 -57q21 -21 61 -21q38 0 68 23q24 21 24 61q0 46 -26 66q-28 22 -80 22h-60v129h54q44 0 69 19t25 53t-19 53t-53 19t-55 -21q-22 -22 -25 -55h-180q6 102 80 164q73 61 190 61q116 0 183 -55t67 -139q0 -55 -24 -95q-23 -39 -70 -63q56 -21 84 -66
q29 -50 29 -104q0 -95 -74 -160q-69 -63 -199 -63q-119 0 -192 61q-74 62 -80 164z" />
    <glyph glyph-name="uni2155" unicode="&#x2155;" horiz-adv-x="1497" 
d="M1163 1440h211l-1104 -1440h-211zM430 719h-180v549h-139l43 172h276v-721zM940 721h410v-164h-267l-8 -98l41 6q10 2 29 2q118 0 182 -64q68 -65 68 -172t-74 -178q-69 -69 -188 -69q-115 0 -191 61q-77 62 -86 164h184q9 -27 31 -43q20 -14 55 -14q40 0 64 24t24 60
q0 37 -24 61q-25 25 -62 25q-28 0 -43 -9q-18 -9 -30 -24l-152 20z" />
    <glyph glyph-name="uni2156" unicode="&#x2156;" horiz-adv-x="1597" 
d="M627 719l-535 -4v143l264 242q34 30 50 55q14 20 14 53q0 31 -21 49q-22 19 -55 19q-32 0 -55 -23q-22 -22 -25 -55h-184q6 111 80 182q78 72 194 72q115 0 185 -61q69 -60 69 -162q0 -61 -30 -117q-28 -53 -113 -131l-98 -90h260v-172zM1276 1436h211l-1104 -1440h-211z
M1049 717h409v-164h-266l-8 -98l41 6q10 2 28 2q119 0 183 -64q67 -64 67 -172t-73 -178q-69 -69 -189 -69q-114 0 -190 61q-77 62 -86 164h184q9 -27 31 -43q21 -15 55 -15q38 0 63 25t25 59q0 37 -25 62q-24 24 -61 24q-30 0 -43 -8q-20 -10 -31 -24l-151 20z" />
    <glyph glyph-name="uni2157" unicode="&#x2157;" horiz-adv-x="1540" 
d="M1221 1440h211l-1104 -1440h-211zM997 721h410v-164h-266l-8 -98l41 6q10 2 28 2q118 0 182 -64q68 -65 68 -172t-74 -178q-69 -69 -188 -69q-115 0 -191 61q-77 62 -86 164h185q9 -28 30 -43q20 -14 56 -14q39 0 63 24q25 25 25 60q0 36 -25 61t-61 25q-28 0 -43 -9
q-20 -10 -31 -24l-151 20zM74 934l172 4q6 -36 30 -57q21 -21 62 -21q38 0 68 23q24 21 24 61q0 45 -27 66q-28 22 -79 22h-60v129h53q45 0 70 19t25 53t-19 53t-53 19t-55 -21q-22 -22 -25 -55h-180q6 102 80 164q73 61 190 61q115 0 182 -55q68 -56 68 -139q0 -53 -25 -95
q-23 -39 -69 -63q56 -21 84 -66q28 -48 28 -104q0 -96 -73 -160q-69 -63 -199 -63q-119 0 -192 61q-74 62 -80 164z" />
    <glyph glyph-name="uni2158" unicode="&#x2158;" horiz-adv-x="1603" 
d="M66 979l260 461h206l-256 -443h142v111l178 39v-150h53v-163h-53v-115h-178v115h-352v145zM1276 1440h211l-1104 -1440h-211zM1053 721h409v-164h-266l-8 -98l41 6q10 2 28 2q119 0 183 -64q67 -64 67 -172t-73 -178q-69 -69 -189 -69q-114 0 -190 61q-77 62 -86 164h184
q9 -27 31 -43q20 -14 55 -14q40 0 64 24t24 60q0 37 -24 61q-25 25 -62 25q-28 0 -43 -9q-20 -10 -31 -24l-151 20z" />
    <glyph glyph-name="uni2159" unicode="&#x2159;" horiz-adv-x="1456" 
d="M1087 -12v-4q-118 0 -194 73q-78 75 -78 183q0 53 19 108q19 59 61 121l160 250h209l-166 -240h12q110 0 180 -67t70 -170q0 -107 -80 -181q-79 -73 -193 -73zM993 238l4 -5q0 -40 27 -67t68 -27q39 0 65 29q25 28 25 68t-27 67q-29 29 -68 29q-40 0 -67 -27t-27 -67z
M434 711h-180v549h-139l43 172h276v-721zM1167 1432h211l-1104 -1440h-211z" />
    <glyph glyph-name="uni215A" unicode="&#x215a;" horiz-adv-x="1519" 
d="M1159 -12v-4q-118 0 -194 73q-78 75 -78 183q0 56 18 108q18 56 62 121l159 250h209l-166 -240h13q110 0 180 -67t70 -170q0 -107 -80 -181q-79 -73 -193 -73zM1065 238l4 -5q0 -40 27 -67t67 -27t66 29q24 27 24 68t-26 67q-29 29 -68 29q-40 0 -67 -27t-27 -67z
M1239 1432h211l-1104 -1440h-211zM154 1432h409v-164h-266l-8 -99l41 7q10 2 28 2q119 0 183 -64q67 -64 67 -172t-73 -178q-70 -70 -189 -70q-113 0 -190 62t-86 164h184q9 -27 31 -43q21 -15 55 -15q38 0 63 25t25 59q0 37 -25 62q-24 24 -61 24q-30 0 -43 -8
q-18 -9 -31 -25l-151 21z" />
    <glyph glyph-name="uni215B" unicode="&#x215b;" horiz-adv-x="1492" 
d="M1163 1440h211l-1104 -1440h-211zM430 719h-180v549h-139l43 172h276v-721zM1401 213h-6q0 -98 -76 -162q-75 -63 -203 -63q-119 0 -196 65q-78 66 -78 160q0 56 28 104q27 47 80 74q-35 27 -53 68t-18 82q0 84 67 139t174 55q109 0 176 -55q68 -56 68 -139
q0 -41 -18 -82q-18 -39 -54 -68q53 -27 80 -74q29 -50 29 -104zM1038 520l2 2q0 -28 23 -51q21 -21 55 -18q39 3 58 22q20 17 20 49q0 30 -22 49t-60 19q-34 0 -55 -21t-21 -51zM1020 221h-2q0 -40 26 -63q28 -25 74 -25t74 25q29 26 29 63q0 41 -27 68q-26 26 -74 26
q-47 0 -73 -26q-27 -27 -27 -68z" />
    <glyph glyph-name="uni215C" unicode="&#x215c;" horiz-adv-x="1542" 
d="M1225 1440h211l-1104 -1440h-211zM1462 213h-6q0 -98 -76 -162q-75 -63 -202 -63q-120 0 -197 65q-78 66 -78 160q0 54 29 104q27 47 80 74q-36 29 -54 68q-18 41 -18 82q0 83 68 139q67 55 174 55q109 0 176 -55t67 -139q0 -41 -18 -82t-53 -68q53 -27 80 -74
q28 -48 28 -104zM1100 520l2 2q0 -29 22 -51q21 -21 56 -18q38 3 57 22q20 17 20 49q0 30 -22 49t-59 19q-35 0 -56 -21q-20 -20 -20 -51zM1081 221h-2q0 -39 27 -63q28 -25 74 -25q45 0 73 25q29 26 29 63q0 41 -27 68q-26 26 -73 26q-48 0 -74 -26q-27 -27 -27 -68z
M72 936l172 4q6 -36 30 -57q21 -21 62 -21q37 0 67 23q25 22 25 61q0 45 -27 66q-28 22 -79 22h-60v129h53q45 0 70 19t25 53t-19 53t-53 19t-55 -21q-22 -22 -25 -55h-180q6 102 80 164q73 61 190 61q115 0 182 -55q68 -56 68 -139q0 -53 -25 -95q-23 -39 -69 -63
q56 -21 84 -66q28 -48 28 -104q0 -96 -73 -160q-69 -63 -199 -63q-119 0 -192 61q-74 62 -80 164z" />
    <glyph glyph-name="uni215D" unicode="&#x215d;" horiz-adv-x="1554" 
d="M1235 1440h211l-1104 -1440h-211zM150 1440h409v-164h-266l-8 -98l41 6q10 2 28 2q119 0 183 -64q67 -64 67 -172q0 -107 -74 -178q-70 -70 -188 -70q-113 0 -190 62t-86 164h184q9 -27 31 -43q21 -15 55 -15q38 0 63 25t25 59q0 37 -25 62q-24 24 -61 24q-30 0 -43 -8
q-20 -10 -31 -24l-151 20zM1464 213h-6q0 -98 -76 -162q-75 -63 -202 -63q-120 0 -197 65q-78 66 -78 160q0 54 29 104q27 47 80 74q-35 27 -53 68q-19 43 -19 82q0 83 68 139q67 55 174 55q109 0 176 -55t67 -139q0 -41 -18 -82t-53 -68q53 -27 80 -74q28 -48 28 -104z
M1102 520l2 2q0 -29 22 -51q21 -21 56 -18q38 3 57 22q21 18 21 49q0 29 -23 49q-22 19 -59 19q-35 0 -56 -21q-20 -20 -20 -51zM1083 221h-2q0 -39 27 -63q28 -25 74 -25q45 0 73 25q29 26 29 63q0 41 -27 68q-26 26 -73 26q-48 0 -74 -26q-27 -27 -27 -68z" />
    <glyph glyph-name="uni215E" unicode="&#x215e;" horiz-adv-x="1501" 
d="M438 1268h-303v172h506v-148l-264 -573h-201zM1165 1440h211l-1104 -1440h-211zM1413 213h-6q0 -98 -76 -162q-75 -63 -203 -63q-119 0 -196 65q-78 66 -78 160q0 54 29 104q27 47 80 74q-36 29 -54 68q-18 41 -18 82q0 84 67 139t175 55q109 0 176 -55t67 -139
q0 -41 -18 -82t-53 -68q51 -26 79 -74q29 -50 29 -104zM1051 520l2 2q0 -29 22 -51q21 -21 55 -18q39 3 58 22q20 17 20 49q0 30 -22 49t-60 19q-34 0 -55 -21q-20 -20 -20 -51zM1032 221h-2q0 -39 27 -63q28 -25 73 -25q46 0 74 25q29 26 29 63q0 41 -27 68q-26 26 -73 26
q-48 0 -74 -26q-27 -27 -27 -68z" />
    <glyph glyph-name="uni215F" unicode="&#x215f;" horiz-adv-x="1439" 
d="M459 719h-180v549h-140l43 172h277v-721zM1188 1440h211l-1104 -1440h-211z" />
    <glyph glyph-name="partialdiff" unicode="&#x2202;" horiz-adv-x="1249" 
d="M57 494l-2 -5q0 205 140 351q139 145 342 145q112 0 202 -37q89 -34 156 -108q-55 214 -211 331q-154 119 -414 134v237q432 -12 660 -264q227 -251 227 -703q0 -256 -160 -430q-159 -172 -397 -172q-229 0 -387 152q-156 150 -156 369zM901 489q0 118 -84 199
q-83 80 -213 80q-126 0 -209 -80q-84 -81 -84 -199q0 -119 84 -200q83 -80 209 -80q130 0 213 80q84 81 84 200z" />
    <glyph glyph-name="Delta" unicode="&#x2206;" horiz-adv-x="1343" 
d="M530 1440h287l461 -1243v-197h-1212v197zM666 1128l-314 -888h627z" />
    <glyph glyph-name="product" unicode="&#x220f;" horiz-adv-x="1548" 
d="M516 0h-268v1194h-172v246h1397v-246h-173v-1194h-266v1194h-518v-1194z" />
    <glyph glyph-name="summation" unicode="&#x2211;" horiz-adv-x="1241" 
d="M86 1251v189h1049v-246h-699l355 -438l-365 -510h729v-246h-1063v174l416 565z" />
    <glyph glyph-name="minus" unicode="&#x2212;" horiz-adv-x="1167" 
d="M115 616v203h938v-203h-938z" />
    <glyph glyph-name="uni2215" unicode="&#x2215;" horiz-adv-x="323" 
d="M608 1440h211l-1104 -1440h-211z" />
    <glyph glyph-name="uni2219" unicode="&#x2219;" horiz-adv-x="884" 
d="M717 752h-2q0 -109 -78 -187q-76 -76 -191 -76q-114 0 -190 76t-76 187q0 113 74 190q73 76 195 76q116 0 192 -76t76 -190z" />
    <glyph glyph-name="radical" unicode="&#x221a;" horiz-adv-x="1193" 
d="M723 0h-287l-239 741h-154v226h354l185 -613l331 1086h265z" />
    <glyph glyph-name="infinity" unicode="&#x221e;" horiz-adv-x="1652" 
d="M455 899l-2 -8q117 0 209 -57q98 -61 167 -166q71 114 164 172q95 59 201 59q152 0 256 -104t104 -263q0 -158 -104 -262t-256 -104q-109 0 -203 61q-96 62 -172 176q-72 -118 -166 -178q-95 -59 -198 -59q-152 0 -256 104q-105 105 -105 262q0 158 105 263
q104 104 256 104zM461 690l2 -6q-72 0 -117 -45q-47 -47 -47 -119t47 -119q45 -45 117 -45q64 0 117 41q51 39 98 129q-43 76 -98 119q-57 45 -119 45zM1192 352v-4q70 0 117 47t47 121q0 76 -45 121q-47 47 -117 47q-66 0 -117 -39q-48 -37 -98 -119q42 -86 96 -129
q51 -45 117 -45z" />
    <glyph glyph-name="integral" unicode="&#x222b;" horiz-adv-x="845" 
d="M551 1137l2 -1196q0 -199 -96 -303q-94 -99 -293 -99q-28 0 -82 4q-32 2 -76 13v225q42 -9 66 -12q16 -2 47 -2q90 0 133 43t43 135v1198q0 201 96 305q94 98 293 98q40 0 80 -6q13 -3 39 -7t39 -7v-226q-29 8 -60 11q-36 4 -53 4q-92 0 -135 -43t-43 -135z" />
    <glyph glyph-name="approxequal" unicode="&#x2248;" horiz-adv-x="1167" 
d="M633 1024h-8q72 -30 98 -37q27 -8 65 -8q64 0 111 27q46 27 102 104v-229q-29 -51 -92 -86q-56 -33 -139 -33q-40 0 -92 10q-46 10 -113 43q-61 34 -98 43q-45 10 -80 10q-67 0 -125 -34q-54 -32 -102 -105v221q27 52 96 92q71 41 143 41q51 0 101 -12q37 -9 133 -47z
M625 614h-9q64 -27 99 -36q30 -9 65 -9q64 0 111 27q46 27 102 104v-229q-29 -51 -92 -86q-56 -33 -139 -33q-40 0 -92 10q-42 9 -113 44q-61 34 -98 43q-45 10 -80 10q-66 0 -125 -35q-54 -32 -102 -105v222q27 52 96 92q71 41 143 41q51 0 101 -12q29 -8 133 -48z" />
    <glyph glyph-name="notequal" unicode="&#x2260;" horiz-adv-x="1167" 
d="M442 215h-204l92 178h-215v205h319l123 238h-442v204h547l92 179h204l-92 -179h187v-204h-291l-123 -238h414v-205h-518z" />
    <glyph glyph-name="lessequal" unicode="&#x2264;" horiz-adv-x="1167" 
d="M1006 326l-859 389v205l859 389v-248l-541 -244l541 -244v-247zM147 6v205h859v-205h-859z" />
    <glyph glyph-name="greaterequal" unicode="&#x2265;" horiz-adv-x="1167" 
d="M162 326v247l540 244l-540 244v248l858 -389v-205zM1020 6h-858v205h858v-205z" />
    <glyph glyph-name="lozenge" unicode="&#x25ca;" horiz-adv-x="1257" 
d="M543 -27l-480 775l486 718h160l485 -718l-479 -775h-172zM631 1184l-299 -436l299 -482l295 482z" />
    <glyph glyph-name="zero.denominator" unicode="&#xf655;" horiz-adv-x="704" 
d="M631 252h-4q0 -127 -76 -197q-75 -69 -203 -69t-203 69t-75 197v221q0 123 77 191q76 67 203 67t203 -67q78 -69 78 -191v-221zM348 563v-4q-47 0 -74 -27q-26 -26 -26 -73v-205q0 -48 26 -74t74 -26q46 0 74 28q27 27 27 74v205q0 47 -27 74q-28 28 -74 28z" />
    <glyph glyph-name="one.denominator" unicode="&#xf656;" horiz-adv-x="450" 
d="M350 0h-180v549h-139l43 172h276v-721z" />
    <glyph glyph-name="two.denominator" unicode="&#xf657;" horiz-adv-x="667" 
d="M604 0l-534 -4v143l264 242q32 28 49 55q14 20 14 53t-20 50q-21 18 -55 18t-56 -22q-21 -21 -24 -56h-185q6 112 80 183q77 71 195 71q114 0 184 -61t70 -162q0 -60 -31 -117q-28 -53 -113 -131l-98 -90h260v-172z" />
    <glyph glyph-name="three.denominator" unicode="&#xf658;" horiz-adv-x="663" 
d="M55 215l172 4q6 -35 31 -57q21 -21 61 -21q38 0 68 23q25 22 25 61q0 45 -27 66q-28 22 -80 22h-59v129h53q45 0 70 19q24 18 24 53t-18 53q-19 19 -53 19q-35 0 -56 -21t-24 -55h-181q6 102 80 164q73 61 191 61q115 0 182 -55q68 -56 68 -139q0 -53 -25 -95
q-23 -39 -70 -63q56 -21 84 -66q29 -50 29 -104q0 -95 -74 -160q-69 -63 -198 -63q-120 0 -193 61q-74 62 -80 164z" />
    <glyph glyph-name="four.denominator" unicode="&#xf659;" horiz-adv-x="679" 
d="M47 260l260 461h207l-256 -442h141v110l179 39v-149h53v-164h-53v-115h-179v115h-352v145z" />
    <glyph glyph-name="five.denominator" unicode="&#xf65a;" horiz-adv-x="641" 
d="M125 721h410v-164h-267l-8 -98l41 6q10 2 29 2q118 0 182 -64q68 -65 68 -172t-74 -178q-69 -69 -189 -69q-114 0 -190 61q-77 62 -86 164h184q9 -27 31 -43q20 -14 55 -14q40 0 64 24t24 60q0 37 -24 61q-25 25 -62 25q-28 0 -43 -9q-18 -9 -30 -24l-152 20z" />
    <glyph glyph-name="six.denominator" unicode="&#xf65b;" horiz-adv-x="641" 
d="M324 -12v-4q-119 0 -195 73q-78 75 -78 183q0 53 19 108q19 59 61 121l160 250h209l-166 -240h12q110 0 180 -67t70 -170q0 -107 -80 -181q-79 -73 -192 -73zM229 238l4 -5q0 -40 27 -67t68 -27q39 0 65 29q25 28 25 68t-27 67q-29 29 -67 29q-41 0 -68 -27t-27 -67z" />
    <glyph glyph-name="seven.denominator" unicode="&#xf65c;" horiz-adv-x="600" 
d="M354 549h-303v172h506v-148l-264 -573h-201z" />
    <glyph glyph-name="eight.denominator" unicode="&#xf65d;" horiz-adv-x="675" 
d="M614 213h-6q0 -98 -76 -162q-75 -63 -202 -63q-120 0 -197 65q-78 66 -78 160q0 54 29 104q27 47 80 74q-35 27 -53 68q-19 43 -19 82q0 83 68 139q67 55 174 55q109 0 176 -55q68 -56 68 -139q0 -39 -19 -82q-18 -41 -53 -68q53 -27 80 -74q28 -48 28 -104zM252 520l2 2
q0 -29 22 -51q21 -21 56 -18q38 3 57 22q21 18 21 49q0 29 -23 49q-22 19 -59 19q-35 0 -56 -21q-20 -20 -20 -51zM233 221h-2q0 -39 27 -63q28 -25 74 -25t74 25t28 63q0 42 -26 68t-74 26t-74 -26q-27 -27 -27 -68z" />
    <glyph glyph-name="nine.denominator" unicode="&#xf65e;" horiz-adv-x="641" 
d="M317 733l-2 2q119 0 195 -73q78 -75 78 -181q0 -53 -19 -108q-19 -59 -61 -121l-160 -250h-209l166 240h-12q-110 0 -180 67t-70 170q0 106 80 180t194 74zM410 481l-4 -4q0 41 -27 68q-28 28 -68 28q-42 0 -65 -26q-25 -28 -25 -68t27 -67t67 -27q39 0 68 29
q27 27 27 67z" />
    <glyph glyph-name="zero.numerator" unicode="&#xf661;" horiz-adv-x="704" 
d="M631 971h-4q0 -127 -76 -197q-75 -69 -203 -69t-203 69t-75 197v221q0 122 77 190t203 68t203 -68q78 -69 78 -190v-221zM348 1282v-4q-47 0 -74 -27q-26 -26 -26 -73v-205q0 -48 26 -74q27 -27 74 -27q45 0 74 29q27 27 27 74v205q0 46 -27 73q-29 29 -74 29z" />
    <glyph glyph-name="one.numerator" unicode="&#xf662;" horiz-adv-x="446" 
d="M348 719h-180v549h-139l43 172h276v-721z" />
    <glyph glyph-name="two.numerator" unicode="&#xf663;" horiz-adv-x="669" 
d="M606 719l-534 -4v143l264 242q32 28 49 55q14 20 14 53q0 32 -20 49q-22 19 -55 19t-56 -23q-21 -21 -24 -55h-185q6 111 80 182q78 72 195 72q114 0 184 -61t70 -162q0 -60 -31 -117q-28 -53 -113 -131l-98 -90h260v-172z" />
    <glyph glyph-name="three.numerator" unicode="&#xf664;" horiz-adv-x="663" 
d="M55 934l172 4q6 -35 31 -57q21 -21 61 -21q38 0 68 23q25 22 25 61q0 45 -27 66q-28 22 -80 22h-59v129h53q45 0 70 19q24 18 24 53t-18 53q-19 19 -53 19q-35 0 -56 -21t-24 -55h-181q6 102 80 164q73 61 191 61q115 0 182 -55q68 -56 68 -139q0 -53 -25 -95
q-23 -39 -70 -63q56 -21 84 -66q29 -50 29 -104q0 -95 -74 -160q-69 -63 -198 -63q-120 0 -193 61q-74 62 -80 164z" />
    <glyph glyph-name="four.numerator" unicode="&#xf665;" horiz-adv-x="681" 
d="M47 979l260 461h207l-256 -443h141v111l179 39v-150h53v-163h-53v-115h-179v115h-352v145z" />
    <glyph glyph-name="five.numerator" unicode="&#xf666;" horiz-adv-x="636" 
d="M123 1440h409v-164h-266l-8 -98l41 6q10 2 29 2q118 0 182 -64q68 -65 68 -172t-74 -178q-70 -70 -189 -70q-113 0 -190 62t-86 164h184q9 -27 31 -43q21 -15 55 -15q39 0 64 25q24 24 24 59q0 38 -24 62t-62 24q-30 0 -43 -8q-18 -9 -30 -24l-152 20z" />
    <glyph glyph-name="six.numerator" unicode="&#xf667;" horiz-adv-x="643" 
d="M326 707v-5q-118 0 -195 74q-78 75 -78 182q0 54 19 109q19 59 61 121l160 250h209l-166 -240h12q109 0 180 -68q70 -67 70 -169q0 -107 -80 -181q-79 -73 -192 -73zM231 956l5 -4q0 -41 26 -67q27 -27 68 -27q39 0 65 29q25 28 25 67q0 41 -27 68q-29 29 -67 29
q-41 0 -68 -27t-27 -68z" />
    <glyph glyph-name="seven.numerator" unicode="&#xf668;" horiz-adv-x="598" 
d="M352 1268h-303v172h506v-148l-264 -573h-201z" />
    <glyph glyph-name="eight.numerator" unicode="&#xf669;" horiz-adv-x="675" 
d="M614 932h-6q0 -98 -76 -162q-75 -63 -202 -63q-120 0 -197 65q-78 66 -78 160q0 54 29 104q27 47 80 74q-35 27 -53 68q-19 43 -19 82q0 83 68 139q67 55 174 55q109 0 176 -55q68 -56 68 -139q0 -39 -19 -82q-18 -41 -53 -68q53 -27 80 -74q28 -48 28 -104zM252 1239
l2 2q0 -29 22 -51t56 -19q37 3 57 23q21 18 21 49q0 29 -23 49q-22 19 -59 19q-35 0 -56 -21q-20 -20 -20 -51zM233 940h-2q0 -39 27 -63q28 -25 74 -25t74 25t28 63q0 42 -26 68t-74 26t-74 -26q-27 -27 -27 -68z" />
    <glyph glyph-name="nine.numerator" unicode="&#xf66a;" horiz-adv-x="643" 
d="M317 1452l-2 2q118 0 195 -74q78 -75 78 -180q0 -53 -19 -108q-19 -59 -61 -121l-160 -250h-209l166 240h-12q-110 0 -180 67t-70 170q0 106 80 180t194 74zM410 1200l-4 -4q0 41 -27 68q-28 28 -68 28q-42 0 -65 -26q-25 -28 -25 -68q0 -41 27 -68q26 -26 67 -26
q39 0 68 29q27 27 27 67z" />
    <glyph glyph-name="commaaccent" unicode="&#xf6c3;" horiz-adv-x="409" 
d="M324 -305l-107 -240h-137l84 180q-42 12 -66 50q-24 37 -24 77q0 60 37 97t96 37t96 -37t37 -95q0 -8 -4 -36q-4 -20 -12 -33z" />
    <glyph glyph-name="uniF8FF" unicode="&#xf8ff;" horiz-adv-x="2945" 
d="M1518 1071v-74h63q6 0 18 -4q7 -3 7 -16v-55q0 -12 -7 -19q-6 -6 -18 -6h-63v-158q0 -17 12 -26q8 -8 37 -8h20q12 0 19 -7q6 -6 6 -18v-55q0 -13 -6 -19t-19 -6h-39q-80 0 -123 29q-36 26 -36 96v172h-35q-13 0 -19 6t-6 19v51q0 2 4 14q2 7 19 10l32 2h2v74q0 12 7 19
q6 6 18 6h80q14 0 20 -6q7 -7 7 -21zM717 999l82 -4q12 0 18 -6t6 -18v-13q34 25 62 35q37 11 59 11q33 0 62 -13q28 -13 43 -39q43 34 63 41q32 13 68 13q53 0 84 -31q30 -30 30 -80v-270q0 -13 -6 -19t-20 -6h-78q-15 0 -21 6t-6 19v237q0 21 -6 27t-22 6q-23 0 -39 -8
q-13 -7 -39 -25v-239q0 -13 -6 -19t-19 -6h-78q-14 0 -20 6t-6 19v237q0 21 -6 27t-25 6q-23 0 -39 -8q-18 -7 -37 -21v-239q0 -7 -4 -19q-3 -6 -16 -6h-84q-13 0 -19 6t-6 19v350q0 12 6 18t19 6zM2087 995h74q14 0 20 -6t6 -18l2 -15q33 26 60 35q33 10 61 10q58 0 88 -30
q31 -31 31 -90v-164q0 -58 -31 -94q-29 -33 -88 -33q-28 0 -61 10q-28 9 -56 31v-170q0 -13 -6 -19t-18 -6h-82q-13 0 -19 6t-6 19v510q0 12 6 18t19 6zM463 1004l-2 -3q83 0 127 -30q43 -30 43 -94v-89q0 -12 -6 -18t-19 -6h-190v-47q0 -18 12 -27q8 -8 37 -8q20 0 37 10
q12 9 12 29v2q0 12 6 18q7 7 19 7h65q12 0 19 -7q6 -6 6 -18v-6q0 -64 -41 -94q-42 -31 -123 -31q-85 0 -129 33q-45 33 -45 94v162q0 62 43 92q45 31 129 31zM2660 1001l-6 -2q84 0 127 -30t43 -95v-88q0 -12 -6 -18t-18 -6h-193v-47q0 -18 12 -27q8 -8 37 -8q20 0 37 10
q12 9 12 29v2q0 11 7 18q6 6 18 6h66q12 0 18 -6t6 -18v-6q0 -65 -39 -94q-42 -31 -123 -31q-88 0 -127 33q-43 34 -43 94v162q0 62 43 92t129 30zM1757 969l35 -146q6 -14 10 -45q1 -6 2 -13l1.5 -10.5t0.5 -6.5q3 3 9 26q3 8 6 24t6 23l49 148q3 16 10 18q12 4 17 4h75
q15 0 21 -6q6 -9 4 -16l-172 -510q-3 -11 -10 -17q-6 -6 -17 -6h-57q-15 0 -21 6t-2 17l33 121l-133 389q-4 11 2 16q6 6 23 6h82q4 0 16 -4q7 -2 10 -18zM444 903v-4q-28 0 -36 -8q-13 -10 -13 -27v-22h99v22q0 19 -13 29q-17 10 -37 10zM2644 899l2 -4q-29 0 -37 -8
q-12 -9 -12 -27v-22h96v22q0 20 -12 29q-17 10 -37 10zM2251 686l2 2q18 0 26 8q9 9 9 27v127q0 16 -9 22q-11 7 -26 7q-13 0 -31 -7q-9 -2 -45 -24v-129q10 -5 21.5 -11t17.5 -9.5t10 -6.5q12 -6 25 -6zM1149 459l-4 -84h96q6 0 6 -2v-6v-17q0 -6 -2 -8t-6 -2h-96v-254
q0 -33 24 -51q25 -19 78 -19h12q5 0 7 -2q4 -4 4 -6v-14q0 -4 -2 -6t-6 -2h-19q-66 0 -102 22q-31 22 -31 74v258h-51q-4 0 -6 2t-2 8v15q0 4 2 6l6 6h51v84v8q0 2 6 2h23l6 -6zM834 383l-9 2q69 0 105 -25q35 -24 35 -73v-101q0 -4 -2 -6t-7 -2h-233v-98q0 -33 25 -49
q31 -17 77 -17q43 0 74 17q25 16 25 49v16q0 4 2 6t12 2h18q7 0 9 -2t2 -6v-18q0 -52 -35 -76q-36 -25 -105 -25q-68 0 -104 25q-35 24 -35 74v209q0 49 37 73q39 25 109 25zM313 371l6 -43q38 27 68 37q35 12 68 12q52 0 80 -25t28 -67v-295q0 -4 -2 -6t-6 -2h-23h-6
q-2 0 -2 10v287q0 33 -20 47q-22 16 -62 16q-36 0 -71 -12t-56 -33v-303q0 -4 -2 -6t-6 -2h-22q-7 0 -9 2t-2 8v375q0 4 2 6t9 2h18q6 0 8 -2t2 -6zM831 342h-2q-46 0 -75 -16q-25 -16 -25 -50v-73h201v73q0 34 -25 50q-29 16 -74 16zM145 49v-61q0 -6 -2 -8q-3 -3 -8 -3
h-22q-4 0 -7 3q-2 2 -2 8v61q0 6 2 8t7 2h22q6 0 8 -2t2 -8z" />
    <glyph glyph-name="f_f" unicode="&#xfb00;" horiz-adv-x="1501" 
d="M489 0l-253 -4v809h-168v229h168v103q0 200 98 301q99 102 291 102q26 0 80 -4q36 -3 75 -12v-226q-47 11 -63 13q-36 4 -49 4q-93 0 -136 -43t-43 -137v-99h467v103q0 199 99 301t291 102q25 0 79 -4q39 -3 80 -12v-226q-47 11 -63 13q-36 4 -49 4q-93 0 -136 -43
t-43 -137v-99h254v-229h-254v-809h-258v809h-467v-809z" />
    <glyph glyph-name="fi" unicode="&#xfb01;" horiz-adv-x="1337" 
d="M489 0h-256v809h-167v229h167v103q0 199 99 301t291 102q27 0 77 -4q38 -3 68 -12v-225q-17 6 -51 10q-32 4 -49 4q-93 0 -136 -43t-43 -137v-99h254v-229h-254v-809zM889 1354l-4 -2q0 69 47 116q45 45 121 45t121 -45q47 -47 47 -116q0 -70 -47 -117q-45 -45 -121 -45
q-72 0 -119 47q-45 45 -45 117zM1180 -2h-256v1038h256v-1038z" />
    <glyph glyph-name="fl" unicode="&#xfb02;" horiz-adv-x="1337" 
d="M489 0h-256v809h-167v229h167v103q0 199 99 301t291 102q27 0 77 -4q38 -3 68 -12v-225q-17 6 -51 10q-32 4 -49 4q-93 0 -136 -43t-43 -137v-99h254v-229h-254v-809zM928 1518h256v-1518h-256v1518z" />
    <glyph glyph-name="f_f_i" unicode="&#xfb03;" horiz-adv-x="2060" 
d="M489 0l-251 -2v809h-168v229h168v103q0 200 98 301q99 102 291 102q26 0 80 -4q36 -3 75 -12v-226q-47 11 -63 13q-36 4 -49 4q-92 0 -135 -43t-43 -137v-99h466v103q0 199 99 301t291 102q27 0 77 -4q36 -3 70 -12v-225q-23 6 -55 10t-47 4q-93 0 -136 -43t-43 -137v-99
h254v-229h-254v-809h-258v809h-467v-809zM1618 1352l-4 -2q0 69 47 116q45 45 121 45t121 -45q47 -47 47 -116q0 -70 -47 -117q-45 -45 -121 -45q-72 0 -119 47q-45 45 -45 117zM1909 -4h-256v1038h256v-1038z" />
    <glyph glyph-name="f_f_l" unicode="&#xfb04;" horiz-adv-x="2060" 
d="M489 0l-251 -2v809h-168v229h168v103q0 200 98 301q99 102 291 102q26 0 80 -4q36 -3 75 -12v-226q-47 11 -63 13q-36 4 -49 4q-92 0 -135 -43t-43 -137v-99h466v103q0 199 99 301t291 102q27 0 77 -4q36 -3 70 -12v-225q-23 6 -55 10t-47 4q-93 0 -136 -43t-43 -137v-99
h254v-229h-254v-809h-258v809h-467v-809zM1657 1516h256v-1518h-256v1518z" />
    <glyph glyph-name="longs_t" unicode="&#xfb05;" horiz-adv-x="1413" 
d="M406 0l-254 -2v1141q0 201 96 305q94 98 293 98q26 0 80 -4q36 -3 75 -12v-226q-42 11 -61 13q-36 4 -51 4q-92 0 -135 -43t-43 -137v-1137zM813 1036v307l256 60v-367h256v-229h-256v-449q0 -81 35 -122q34 -37 110 -37q32 0 74 10q31 8 72 31v-226q-42 -19 -96 -32
t-107 -13q-172 0 -258 92t-86 277v469h-166v229h166z" />
    <glyph glyph-name="zero.tab" unicode="&#xff10;" horiz-adv-x="1228" 
d="M1147 506v-2q0 -251 -148 -393t-387 -142t-387 142q-147 141 -147 393v430q0 250 147 391t387 141t387 -141q148 -142 148 -389v-430zM610 1210l-6 -2q-122 0 -192 -73q-70 -70 -70 -205v-428q0 -135 70 -205q71 -74 196 -74q126 0 197 74q72 78 72 205v428
q0 137 -70 207q-70 73 -197 73z" />
    <glyph glyph-name="one.tab" unicode="&#xff11;" horiz-adv-x="1228" 
d="M1079 0h-886v244h309v950h-289l63 246h494v-1196h309v-244z" />
    <glyph glyph-name="two.tab" unicode="&#xff12;" horiz-adv-x="1228" 
d="M1143 0l-1049 6v207l574 541q83 77 116 139q35 65 35 127q0 87 -59 143t-158 56q-110 0 -178 -68q-67 -67 -76 -180h-274q12 222 159 360q151 139 383 139q223 0 353 -118q135 -120 135 -314q0 -128 -57 -233q-59 -108 -222 -258l-325 -301h643v-246z" />
    <glyph glyph-name="three.tab" unicode="&#xff13;" horiz-adv-x="1228" 
d="M88 422h274q9 -87 80 -143t174 -56q107 0 175 62q67 61 67 153q0 103 -67 158t-187 55h-151v197h159q87 0 146 53q55 52 55 141q0 81 -57 129q-59 50 -154 50q-94 0 -153 -50q-60 -51 -66 -135h-270q9 188 145 312q134 122 354 122q212 0 340 -110q129 -111 129 -275
q0 -110 -49 -192q-50 -83 -141 -129q117 -45 176 -135q59 -89 59 -215q0 -188 -141 -314q-137 -125 -371 -125q-229 0 -370 123t-156 324z" />
    <glyph glyph-name="four.tab" unicode="&#xff14;" horiz-adv-x="1228" 
d="M45 475l549 965h309l-538 -928h405v287l262 61v-348h146v-240h-146v-272h-262v272h-725v203z" />
    <glyph glyph-name="five.tab" unicode="&#xff15;" horiz-adv-x="1228" 
d="M242 1440l794 2v-246h-579l-29 -299q50 21 102 33t105 12q224 0 356 -129q131 -128 131 -346q0 -211 -147 -352q-148 -142 -365 -142t-368 127t-166 326h274q12 -92 82 -150q69 -57 172 -57q104 0 182 72q74 71 74 172q0 108 -69 174q-71 68 -185 68q-69 0 -127 -25
q-53 -23 -92 -74l-217 27z" />
    <glyph glyph-name="six.tab" unicode="&#xff16;" horiz-adv-x="1228" 
d="M629 -27l-4 -2q-224 0 -375 148q-152 149 -152 360q0 101 37 211q43 120 101 207l362 545h311l-356 -502q27 9 61 12q46 4 68 4q199 0 338 -139t139 -338q0 -211 -153 -358q-154 -148 -377 -148zM362 475l-4 -2q0 -113 74 -190q73 -76 189 -76q115 0 188 76q74 77 74 190
q0 108 -74 182t-186 74q-113 0 -187 -74t-74 -180z" />
    <glyph glyph-name="seven.tab" unicode="&#xff17;" horiz-adv-x="1228" 
d="M807 1194h-686v246h993v-211l-588 -1229h-299z" />
    <glyph glyph-name="eight.tab" unicode="&#xff18;" horiz-adv-x="1228" 
d="M1133 418h-7q0 -195 -143 -320t-375 -125q-230 0 -375 127q-143 125 -143 320q0 113 55 207t158 153q-68 53 -110 133q-39 74 -39 166q0 166 129 277q128 110 329 110q200 0 328 -110q129 -111 129 -277q0 -92 -39 -166q-42 -80 -110 -133q101 -58 157 -153t56 -209z
M397 1057l-2 -4q0 -79 60 -133t153 -54q94 0 154 54q59 53 59 135q0 84 -57 135q-59 53 -154 53q-94 0 -153 -53q-60 -54 -60 -133zM352 426l-2 -6q0 -94 72 -160q69 -63 182 -63t184 65q72 66 72 160q0 101 -69 164q-71 65 -185 65q-115 0 -184 -63q-70 -64 -70 -162z" />
    <glyph glyph-name="nine.tab" unicode="&#xff19;" horiz-adv-x="1228" 
d="M600 1466l4 -2q225 0 375 -147q151 -148 151 -359q0 -103 -36 -210q-38 -113 -101 -205l-362 -545h-312l357 502q-31 -10 -62 -13q-46 -4 -67 -4q-198 0 -338 140q-139 139 -139 338q0 211 153 358t377 147zM866 961l-4 -3q0 114 -74 191q-73 76 -186 76t-186 -76
q-74 -77 -74 -191q0 -106 74 -180q73 -73 188 -73q116 0 189 73t73 183z" />
    <glyph glyph-name="Lgeminada" horiz-adv-x="2168" 
d="M1051 0h-877v1440h268v-1194h609v-246zM1028 727l8 -2q0 -75 -51 -123q-52 -49 -129 -49t-129 49q-51 48 -51 123q0 78 49 127t127 49t127 -49t49 -125zM2144 -2h-876v1440h268v-1194h608v-246z" />
    <glyph glyph-name="lgeminada" horiz-adv-x="1431" 
d="M152 1518h256v-1518h-256v1518zM895 727l8 -2q0 -75 -51 -123q-52 -49 -129 -49t-129 49q-51 48 -51 123q0 78 49 127t127 49t127 -49t49 -125zM1032 1516h256v-1518h-256v1518z" />
    <glyph glyph-name="caron.salt" horiz-adv-x="438" 
d="M350 1298l-110 -266h-154l96 230q-48 15 -73 53q-27 35 -27 84q0 61 43 104t106 43q64 0 107 -43t43 -104q0 -18 -6 -39q-5 -16 -25 -62z" />
    <glyph glyph-name="commaaccent.salt" horiz-adv-x="405" 
d="M72 1372l106 234h139l-86 -181q46 -13 66 -45q25 -36 25 -75q0 -58 -37 -95q-36 -36 -97 -36q-60 0 -96 36q-37 37 -37 97q0 2 4 30q3 15 13 35z" />
    <glyph glyph-name="acute.case" horiz-adv-x="688" 
d="M342 1563h-246l168 301h248z" />
    <glyph glyph-name="grave.case" horiz-adv-x="688" 
d="M264 1563l-170 301h248l166 -301h-244z" />
    <glyph glyph-name="hungarumlaut.case" horiz-adv-x="733" 
d="M238 1864h233l-143 -301h-232zM547 1864h233l-143 -301h-231z" />
    <glyph glyph-name="circumflex.case" horiz-adv-x="745" 
d="M72 1563l219 301h268l219 -301h-227l-127 172l-129 -172h-223z" />
    <glyph glyph-name="caron.case" horiz-adv-x="745" 
d="M66 1864h223l129 -172l127 172h227l-219 -301h-268z" />
    <glyph glyph-name="breve.case" horiz-adv-x="776" 
d="M401 1540l-4 -2q-141 0 -229 88q-92 89 -92 221h188q0 -64 37 -104q36 -39 98 -39q61 0 99 41q37 40 37 104h188q0 -132 -92 -221q-88 -88 -230 -88z" />
    <glyph glyph-name="tilde.case" horiz-adv-x="800" 
d="M465 1780q36 -28 41 -31q12 -6 22 -6q24 0 37 22q13 23 19 74h172q-9 -139 -62 -207q-52 -67 -149 -67q-40 0 -74 12q-32 11 -80 53q-30 30 -43 35q-15 6 -31 6q-34 0 -49 -24q-13 -19 -20 -76h-172q9 142 65 209q56 71 160 71q46 0 78 -14q36 -13 86 -57z" />
    <glyph glyph-name="macron.case" horiz-adv-x="782" 
d="M668 1606h-574v174h574v-174z" />
    <glyph glyph-name="dieresis.case" horiz-adv-x="729" 
d="M358 1702q0 -55 -36 -94t-93 -39q-55 0 -94 39t-39 94q0 58 37 98q36 39 96 39q57 0 93 -39t36 -98zM690 1702q0 -54 -37 -94q-36 -39 -92 -39q-59 0 -98 39t-39 94q0 59 39 98t98 39q56 0 92 -39q37 -40 37 -98z" />
    <glyph glyph-name="dotaccent.case" horiz-adv-x="655" 
d="M387 1714h2q0 -61 -43 -104t-104 -43q-60 0 -103 43t-43 104q0 60 43 103t103 43q59 0 102 -43t43 -103z" />
    <glyph glyph-name="ring.case" horiz-adv-x="724" 
d="M532 1759q0 -92 -67 -153q-68 -62 -162 -62q-95 0 -160 62t-65 153t65 156q63 63 160 63q99 0 162 -63q67 -64 67 -156zM221 1759h-2q0 -34 25 -59t59 -25q37 0 62 25q24 24 24 59q0 38 -24 62t-62 24q-33 0 -57 -24q-25 -25 -25 -62z" />
    <glyph glyph-name="G.alt" horiz-adv-x="1640" 
d="M1241 537l-422 2v206h723v-40q0 -329 -203 -529q-207 -201 -524 -201t-526 215t-209 533q0 313 213 532q212 215 534 215q265 0 457 -143q196 -146 260 -381h-295q-54 129 -164 197q-115 71 -254 71q-199 0 -331 -141q-133 -145 -133 -350q0 -211 129 -352
q130 -142 327 -142q161 0 273 80q109 76 145 228z" />
    <glyph glyph-name="Gcircumflex.alt" horiz-adv-x="1640" 
d="M467 1563l219 301h268l220 -301h-228l-127 172l-129 -172h-223zM1241 537l-422 2v206h723v-40q0 -329 -203 -529q-207 -201 -524 -201t-526 215t-209 533q0 313 213 532q212 215 534 215q265 0 457 -143q196 -146 260 -381h-295q-54 129 -164 197q-115 71 -254 71
q-199 0 -331 -141q-133 -145 -133 -350q0 -211 129 -352q130 -142 327 -142q161 0 273 80q109 76 145 228z" />
    <glyph glyph-name="Gbreve.alt" horiz-adv-x="1640" 
d="M1241 537l-422 2v206h723v-40q0 -329 -203 -529q-207 -201 -524 -201t-526 215t-209 533q0 313 213 532q212 215 534 215q265 0 457 -143q196 -146 260 -381h-295q-54 129 -164 197q-115 71 -254 71q-199 0 -331 -141q-133 -145 -133 -350q0 -211 129 -352
q130 -142 327 -142q161 0 273 80q109 76 145 228zM811 1542l-4 -2q-141 0 -229 88q-93 90 -93 221h189q0 -64 37 -104q36 -39 98 -39q60 0 98 41q37 40 37 104h189q0 -131 -93 -221q-88 -88 -229 -88z" />
    <glyph glyph-name="Gdotaccent.alt" horiz-adv-x="1640" 
d="M967 1714h2q0 -61 -43 -104t-105 -43q-59 0 -102 43t-43 104q0 60 43 103t102 43q60 0 103 -43t43 -103zM1243 537l-422 2v206h723v-40q0 -329 -203 -529q-207 -201 -524 -201t-526 215t-209 533q0 313 213 532q212 215 534 215q265 0 457 -143q196 -146 260 -381h-295
q-54 129 -164 197q-115 71 -253 71q-200 0 -332 -141q-133 -145 -133 -350q0 -211 129 -352q130 -142 327 -142q161 0 273 80q109 76 145 228z" />
    <glyph glyph-name="uni0122.alt" horiz-adv-x="1640" 
d="M934 -330l-107 -239h-137l84 180q-42 12 -65 49q-25 39 -25 78q0 59 37 96t96 37t96 -37t37 -94q0 -9 -4 -37q-4 -20 -12 -33zM1243 532l-422 3v206h723v-41q0 -328 -203 -528q-207 -201 -524 -201t-526 215t-209 533q0 313 213 532q212 215 534 215q265 0 457 -143
q196 -146 260 -381h-295q-54 129 -164 197q-115 71 -253 71q-200 0 -332 -141q-133 -145 -133 -350q0 -211 129 -352q130 -142 327 -142q161 0 273 80q110 76 145 227z" />
    <glyph glyph-name="a.alt" 
d="M582 -27l2 -2q-219 0 -361 154q-141 153 -141 389q0 238 143 393q144 156 365 156q115 0 209 -49q96 -50 159 -137v159h242v-1038h-242v166q-63 -90 -161 -141q-100 -50 -215 -50zM346 516v-2q0 -132 86 -221q85 -88 219 -88q130 0 217 90q86 89 86 221t-86 221
q-87 90 -217 90q-134 0 -219 -88q-86 -89 -86 -223z" />
    <glyph glyph-name="agrave.alt" 
d="M582 -27l2 -2q-219 0 -361 154q-141 153 -141 389q0 238 143 393q144 156 365 156q115 0 209 -49q96 -50 159 -137v159h242v-1038h-242v166q-63 -90 -161 -141q-100 -50 -215 -50zM346 516v-2q0 -132 86 -221q85 -88 219 -88q130 0 217 90q86 89 86 221t-86 221
q-87 90 -217 90q-134 0 -219 -88q-86 -89 -86 -223zM557 1163l-170 301h248l166 -301h-244z" />
    <glyph glyph-name="aacute.alt" 
d="M803 1167h-246l168 301h248zM582 -27l2 -2q-219 0 -361 154q-141 153 -141 389q0 238 143 393q144 156 365 156q115 0 209 -49q96 -50 159 -137v159h242v-1038h-242v166q-63 -90 -161 -141q-100 -50 -215 -50zM346 516v-2q0 -132 86 -221q85 -88 219 -88q130 0 217 90
q86 89 86 221t-86 221q-87 90 -217 90q-134 0 -219 -88q-86 -89 -86 -223z" />
    <glyph glyph-name="acircumflex.alt" 
d="M326 1167l219 301h268l219 -301h-227l-127 172l-129 -172h-223zM582 -27l2 -2q-219 0 -361 154q-141 153 -141 389q0 238 143 393q144 156 365 156q115 0 209 -49q96 -50 159 -137v159h242v-1038h-242v166q-63 -90 -161 -141q-100 -50 -215 -50zM346 516v-2
q0 -132 86 -221q85 -88 219 -88q130 0 217 90q86 89 86 221t-86 221q-87 90 -217 90q-134 0 -219 -88q-86 -89 -86 -223z" />
    <glyph glyph-name="atilde.alt" 
d="M582 -27l2 -2q-219 0 -361 154q-141 153 -141 389q0 238 143 393q144 156 365 156q115 0 209 -49q96 -50 159 -137v159h242v-1038h-242v166q-63 -90 -161 -141q-100 -50 -215 -50zM346 516v-2q0 -132 86 -221q85 -88 219 -88q130 0 217 90q86 89 86 221t-86 221
q-87 90 -217 90q-134 0 -219 -88q-86 -89 -86 -223zM731 1384q30 -24 41 -30q12 -6 23 -6q23 0 36 22q13 23 19 74h172q-9 -140 -61 -207q-53 -68 -150 -68q-37 0 -74 13q-32 11 -80 53q-30 30 -43 35q-15 6 -30 6q-33 0 -49 -25q-15 -21 -21 -75h-172q9 139 66 208
q57 72 159 72q46 0 78 -14q34 -13 86 -58z" />
    <glyph glyph-name="adieresis.alt" 
d="M645 1309q0 -55 -37 -95q-35 -38 -92 -38q-56 0 -94 38q-39 39 -39 95q0 58 37 98q36 39 96 39q56 0 92 -39q37 -40 37 -98zM977 1309q0 -55 -37 -95q-35 -38 -92 -38q-60 0 -98 38q-39 39 -39 95q0 59 39 98t98 39q56 0 92 -39q37 -40 37 -98zM582 -27l2 -2
q-219 0 -361 154q-141 153 -141 389q0 238 143 393q144 156 365 156q115 0 209 -49q96 -50 159 -137v159h242v-1038h-242v166q-63 -90 -161 -141q-100 -50 -215 -50zM346 516v-2q0 -132 86 -221q85 -88 219 -88q130 0 217 90q86 89 86 221t-86 221q-87 90 -217 90
q-134 0 -219 -88q-86 -89 -86 -223z" />
    <glyph glyph-name="aring.alt" 
d="M905 1366q0 -93 -67 -154t-162 -61q-96 0 -160 61q-65 62 -65 154q0 91 65 156q63 63 160 63q99 0 162 -63q67 -64 67 -156zM594 1366h-2q0 -35 24 -59q25 -25 60 -25q36 0 61 25t25 59q0 36 -25 61t-61 25q-33 0 -58 -25q-24 -24 -24 -61zM580 -27l2 -2q-219 0 -361 154
q-141 153 -141 389q0 238 143 393q144 156 365 156q115 0 209 -49q96 -50 159 -137v159h242v-1038h-242v166q-63 -90 -161 -141q-100 -50 -215 -50zM344 516v-2q0 -132 86 -221q85 -88 219 -88q130 0 217 90q86 89 86 221t-86 221q-87 90 -217 90q-134 0 -219 -88
q-86 -89 -86 -223z" />
    <glyph glyph-name="amacron.alt" 
d="M582 -27l2 -2q-219 0 -361 154q-141 153 -141 389q0 238 143 393q144 156 365 156q115 0 209 -49q96 -50 159 -137v159h242v-1038h-242v166q-63 -90 -161 -141q-100 -50 -215 -50zM346 516v-2q0 -132 86 -221q85 -88 219 -88q130 0 217 90q86 89 86 221t-86 221
q-87 90 -217 90q-134 0 -219 -88q-86 -89 -86 -223zM969 1208h-574v174h574v-174z" />
    <glyph glyph-name="abreve.alt" 
d="M582 -27l2 -2q-219 0 -361 154q-141 153 -141 389q0 238 143 393q144 156 365 156q115 0 209 -49q96 -50 159 -137v159h242v-1038h-242v166q-63 -90 -161 -141q-100 -50 -215 -50zM346 516v-2q0 -132 86 -221q85 -88 219 -88q130 0 217 90q86 89 86 221t-86 221
q-87 90 -217 90q-134 0 -219 -88q-86 -89 -86 -223zM682 1143l-4 -2q-141 0 -229 88q-93 90 -93 221h189q0 -64 37 -104q36 -39 98 -39q60 0 98 41q37 40 37 104h189q0 -131 -93 -221q-88 -88 -229 -88z" />
    <glyph glyph-name="aogonek.alt" 
d="M582 -27l4 -2q-219 0 -361 154q-141 153 -141 389q0 238 143 393q144 156 365 156q115 0 209 -49q97 -51 160 -137v159h241v-1038h-51q-112 -131 -139 -174q-37 -58 -37 -105q0 -39 22 -61q20 -20 62 -20q24 0 51 6q23 6 49 22v-170q-45 -27 -80 -37q-41 -12 -86 -12
q-101 0 -166 59t-65 154q0 70 37 137q41 73 159 203v164q-63 -90 -161 -141q-100 -50 -215 -50zM348 516v-2q0 -132 86 -221q85 -88 219 -88q130 0 217 90q86 89 86 221t-86 221q-87 90 -217 90q-134 0 -219 -88q-86 -89 -86 -223z" />
    </font>
</defs>
</svg>
