<?xml version="1.0" standalone="no"?>
<!DOCTYPE svg PUBLIC "-//W3C//DTD SVG 1.1//EN" "http://www.w3.org/Graphics/SVG/1.1/DTD/svg11.dtd" >
<svg xmlns="http://www.w3.org/2000/svg" xmlns:xlink="http://www.w3.org/1999/xlink" version="1.1">
<metadata>
Created by FontForge 20170731 at Thu Jan  6 10:25:17 2022
 By Aleksey,,,
Copyright (c) 2018 by Eduardo Manso. All rights reserved.
</metadata>
<defs>
<font id="SteradianBoldItalic" horiz-adv-x="1167" >
  <font-face 
    font-family="Steradian Bold Italic"
    font-weight="700"
    font-style="italic"
    font-stretch="normal"
    units-per-em="2048"
    panose-1="0 0 0 0 0 0 0 0 0 0"
    ascent="1638"
    descent="-410"
    x-height="1042"
    cap-height="1440"
    bbox="-584 -592 2824 2003"
    underline-thickness="73"
    underline-position="-400"
    slope="-8"
    unicode-range="U+000D-FF19"
  />
<missing-glyph horiz-adv-x="1779" 
d="M1577 721v-2q0 -299 -211 -510t-506 -211q-297 0 -510 213q-211 211 -211 510t211 510t510 211q295 0 506 -211t211 -510zM197 719l4 -6q0 -269 194 -469q194 -197 467 -197t467 197q195 201 195 471q0 268 -195 469q-193 196 -467 196q-269 0 -469 -194
q-196 -193 -196 -467zM1235 424h-174l-205 203l-203 -203h-176l291 291l-279 278h175l192 -190l193 192h178l-283 -280z" />
    <glyph glyph-name=".notdef" horiz-adv-x="1779" 
d="M1577 721v-2q0 -299 -211 -510t-506 -211q-297 0 -510 213q-211 211 -211 510t211 510t510 211q295 0 506 -211t211 -510zM197 719l4 -6q0 -269 194 -469q194 -197 467 -197t467 197q195 201 195 471q0 268 -195 469q-193 196 -467 196q-269 0 -469 -194
q-196 -193 -196 -467zM1235 424h-174l-205 203l-203 -203h-176l291 291l-279 278h175l192 -190l193 192h178l-283 -280z" />
    <glyph glyph-name=".null" horiz-adv-x="0" 
 />
    <glyph glyph-name="nonmarkingreturn" horiz-adv-x="682" 
 />
    <glyph glyph-name="NULL" horiz-adv-x="0" 
 />
    <glyph glyph-name="NULL" horiz-adv-x="0" 
 />
    <glyph glyph-name="CR" unicode="&#xd;" horiz-adv-x="456" 
 />
    <glyph glyph-name="space" unicode=" " horiz-adv-x="456" 
 />
    <glyph glyph-name="exclam" unicode="!" horiz-adv-x="608" 
d="M399 483h-200v469l69 488h330l-70 -488zM459 172q0 -81 -60 -141q-58 -58 -147 -58q-90 0 -148 58q-57 57 -57 141q0 90 57 147q58 58 148 58q89 0 147 -58q60 -60 60 -147z" />
    <glyph glyph-name="quotedbl" unicode="&#x22;" horiz-adv-x="909" 
d="M383 844h-188l10 545l8 51h319l-8 -51zM797 844h-189l10 545l9 51h319l-8 -51z" />
    <glyph glyph-name="numbersign" unicode="#" horiz-adv-x="1413" 
d="M1251 616l-90 -235h-205l-112 -291h-260l112 291h-194l-113 -291h-260l113 291h-203l90 235h205l82 205h-205l90 236h205l115 291h260l-115 -291h195l114 291h260l-114 -291h202l-90 -236h-205l-79 -205h202zM676 821l-82 -205h194l80 205h-192z" />
    <glyph glyph-name="dollar" unicode="$" horiz-adv-x="1181" 
d="M639 -229l-322 -80l41 313q-154 52 -231 172q-77 121 -68 293h334q-6 -102 49 -160q54 -57 158 -57q78 0 121 43t43 119q0 49 -25 80q-23 28 -125 75l-147 68q-155 73 -223 164q-70 88 -70 219q0 174 105 291q104 117 282 143l29 199l321 71l-43 -294q143 -50 215 -162
q73 -113 70 -277h-334q3 94 -39 139q-44 50 -125 50q-69 0 -112 -37t-43 -101q0 -51 26 -77q30 -30 105 -64l133 -57q188 -80 262 -172t74 -230q0 -200 -117 -323q-118 -124 -317 -142z" />
    <glyph glyph-name="percent" unicode="%" horiz-adv-x="1654" 
d="M856 1110l-2 -4q0 -149 -100 -246q-101 -98 -254 -98q-156 0 -254 98q-99 99 -99 248q0 147 99 246q98 98 256 98q153 0 254 -98q100 -97 100 -244zM1372 1436h256l-1294 -1440h-258zM356 1104l-2 -4q0 -60 41 -101q38 -38 103 -38q60 0 100 40q39 39 39 103
q0 65 -39 104q-40 43 -98 43q-63 0 -103 -43q-41 -47 -41 -104zM1559 324l-3 -5q0 -148 -100 -245q-102 -99 -254 -99q-155 0 -254 99q-98 98 -98 248q0 147 98 245q99 99 256 99q152 0 254 -99q101 -98 101 -243zM1059 317l-2 -4q0 -59 41 -100q39 -39 102 -39q59 0 100 41
q39 39 39 102q0 66 -39 105q-40 43 -98 43q-62 0 -102 -43q-41 -47 -41 -105z" />
    <glyph glyph-name="ampersand" unicode="&#x26;" horiz-adv-x="1449" 
d="M944 559l184 240h349l-363 -477l236 -326h-361l-74 102q-86 -68 -176 -96q-98 -31 -213 -31q-201 0 -340 109q-135 108 -135 276q0 155 96 277q94 117 263 170q-53 77 -76 145q-25 70 -25 133q0 159 127 271q125 110 307 110q162 0 271 -92q108 -92 108 -225
q0 -124 -86 -227q-85 -102 -235 -160zM733 1204l-4 -4q-52 0 -86 -37q-35 -41 -35 -88q0 -25 13 -57q16 -37 51 -86q90 41 129 80t39 90q0 45 -29 74q-28 28 -78 28zM369 389l-2 -6q0 -71 55 -117q59 -47 133 -47q65 0 111 21q49 21 92 67l-211 297q-93 -41 -135 -92
q-43 -52 -43 -123z" />
    <glyph glyph-name="quotesingle" unicode="'" horiz-adv-x="495" 
d="M383 844h-188l10 545l8 51h319l-8 -51z" />
    <glyph glyph-name="parenleft" unicode="(" horiz-adv-x="698" 
d="M530 -287h-311q-65 144 -102 326q-35 175 -35 360q0 348 104 670q106 328 301 590h330q-214 -300 -319 -612q-105 -311 -105 -639q0 -173 35 -357q37 -182 102 -338z" />
    <glyph glyph-name="parenright" unicode=")" horiz-adv-x="698" 
d="M211 1659l307 -2q67 -148 103 -326q34 -170 34 -358q0 -348 -104 -670q-106 -328 -301 -590h-330q215 302 320 613q104 308 104 639q0 194 -33 356q-34 178 -100 338z" />
    <glyph glyph-name="asterisk" unicode="*" horiz-adv-x="952" 
d="M381 684l-203 154l168 170l-207 61l123 244l197 -94l12 221h268l-47 -215l215 88l56 -246l-230 -61l119 -170l-234 -150l-88 203z" />
    <glyph glyph-name="plus" unicode="+" 
d="M733 242h-248v352h-352v246h352v352h248v-352h352v-246h-352v-352z" />
    <glyph glyph-name="comma" unicode="," horiz-adv-x="575" 
d="M174 -346l-225 -4l201 338q-55 25 -84 73q-31 51 -31 109q0 90 57 147q58 58 148 58q89 0 147 -58q59 -59 59 -147q0 -32 -8 -53q-9 -28 -30 -68z" />
    <glyph glyph-name="hyphen" unicode="-" horiz-adv-x="765" 
d="M129 668h506v-273h-506v273z" />
    <glyph glyph-name="period" unicode="." horiz-adv-x="569" 
d="M444 172q0 -82 -59 -141q-58 -58 -147 -58q-90 0 -148 58q-57 57 -57 141q0 90 57 147q58 58 148 58q89 0 147 -58q59 -59 59 -147z" />
    <glyph glyph-name="slash" unicode="/" horiz-adv-x="923" 
d="M700 1659h328l-760 -1946h-327z" />
    <glyph glyph-name="zero" unicode="0" horiz-adv-x="1310" 
d="M627 -27h-2q-260 0 -408 160q-148 161 -111 412l62 426q35 237 184 366q150 129 381 129q270 0 412 -161q144 -164 110 -418l-57 -420q-34 -236 -184 -365t-387 -129zM717 1159l-4 2q-97 0 -154 -57q-61 -58 -76 -156l-59 -420q-15 -111 43 -178t172 -67q100 0 158 55
t73 158l58 419q15 114 -41 179t-170 65z" />
    <glyph glyph-name="one" unicode="1" horiz-adv-x="776" 
d="M543 0h-326l164 1143h-270l114 297h520z" />
    <glyph glyph-name="two" unicode="2" horiz-adv-x="1259" 
d="M1206 1055v-4q0 -151 -69 -263q-70 -116 -283 -276l-287 -219h574l-45 -297h-1059l39 289l626 481q85 66 121 123q37 61 37 125t-43 104q-39 39 -121 39q-83 0 -141 -55q-59 -56 -80 -146h-338q27 223 189 367q159 141 393 141q214 0 352 -114q135 -114 135 -295z" />
    <glyph glyph-name="three" unicode="3" horiz-adv-x="1222" 
d="M590 -27l4 -8q-239 0 -383 123t-150 338h330q3 -70 60 -115q55 -43 141 -43q88 0 147 56q58 55 58 139q0 76 -49 119t-142 43h-153l34 235h158q88 0 141 47q54 48 54 123q0 61 -43 98t-119 37q-73 0 -125 -43q-54 -44 -68 -112h-329q27 200 176 325q151 127 362 127
q219 0 344 -104q127 -106 127 -268q0 -124 -55 -209q-57 -87 -166 -136q85 -48 131 -129q45 -80 45 -186q0 -194 -147 -326q-143 -131 -383 -131z" />
    <glyph glyph-name="four" unicode="4" horiz-adv-x="1267" 
d="M47 522l641 918h383l-637 -908h324l37 256l327 76l-47 -332h142l-41 -290h-144l-31 -242h-319l33 242h-705z" />
    <glyph glyph-name="five" unicode="5" horiz-adv-x="1208" 
d="M330 1440h821l-39 -297h-565l-51 -215q12 3 36 7t37 7q37 6 74 6q216 0 342 -117q127 -118 127 -309q0 -235 -158 -393q-156 -156 -393 -156q-217 0 -368 127q-148 127 -160 330h334q12 -70 67 -113t133 -43q100 0 162 62t62 160q0 79 -56 129q-55 49 -149 49
q-52 0 -101 -19q-42 -16 -79 -53l-256 49z" />
    <glyph glyph-name="six" unicode="6" horiz-adv-x="1212" 
d="M588 -27l-4 -4q-228 0 -371 137q-147 138 -147 345q0 104 53 237q51 128 141 238l424 514h391l-416 -482h21q207 0 346 -127q135 -126 135 -319q0 -226 -168 -381q-172 -158 -405 -158zM829 496h2q0 87 -57 141q-58 55 -149 55q-99 0 -166 -67q-68 -68 -68 -166
q0 -84 60 -144q57 -57 147 -57q97 0 164 70t67 168z" />
    <glyph glyph-name="seven" unicode="7" horiz-adv-x="1114" 
d="M772 1143h-637l41 297h1018l-35 -256l-727 -1184h-375z" />
    <glyph glyph-name="eight" unicode="8" horiz-adv-x="1226" 
d="M319 805l-6 -6q-48 54 -71 110q-25 64 -25 133q0 179 135 299q139 121 342 121q208 0 332 -106q127 -109 127 -271q0 -97 -47 -186q-48 -91 -133 -147q69 -53 114 -138q41 -84 41 -170q0 -200 -153 -335q-154 -136 -385 -136q-230 0 -377 117t-147 307q0 131 67 238
q72 113 186 170zM506 1026h-4q0 -64 49 -104q45 -39 123 -39q76 0 125 49t49 119q0 61 -45 100t-123 39q-72 0 -125 -47q-49 -46 -49 -117zM803 451l-2 -5q0 80 -58 129q-59 50 -153 50q-96 0 -154 -58q-61 -58 -61 -141q0 -81 59 -131q58 -49 152 -49q90 0 155 59
q62 59 62 146z" />
    <glyph glyph-name="nine" unicode="9" horiz-adv-x="1210" 
d="M676 1466q230 0 373 -137q147 -138 147 -344q0 -113 -51 -235q-54 -130 -141 -236l-424 -514h-392l416 481h-20q-207 0 -346 127q-136 127 -136 320q0 226 168 381q171 157 406 157zM430 940h-4q0 -87 57 -141q59 -56 150 -56q98 0 166 68q67 67 67 166q0 86 -57 143
q-58 58 -147 58q-97 0 -164 -70q-68 -71 -68 -168z" />
    <glyph glyph-name="colon" unicode=":" horiz-adv-x="618" 
d="M461 172q0 -81 -60 -141q-58 -58 -147 -58q-90 0 -148 58q-57 57 -57 141q0 90 57 147q58 58 148 58q89 0 147 -58q60 -60 60 -147zM565 866q0 -82 -59 -141q-57 -57 -148 -57q-90 0 -147 57t-57 141q0 91 57 148t147 57q91 0 148 -57q59 -59 59 -148z" />
    <glyph glyph-name="semicolon" unicode=";" horiz-adv-x="624" 
d="M203 -346l-226 -4l201 338q-55 25 -84 73q-31 51 -31 109q0 89 58 147t147 58q90 0 148 -58q59 -59 59 -147q0 -32 -8 -53q-8 -23 -31 -68zM555 862q0 -82 -59 -141q-57 -57 -148 -57q-90 0 -147 57q-58 58 -58 141q0 90 58 148q57 57 147 57q91 0 148 -57
q59 -59 59 -148z" />
    <glyph glyph-name="less" unicode="&#x3c;" 
d="M125 555v248l891 424v-299l-533 -248l533 -248v-299z" />
    <glyph glyph-name="equal" unicode="=" 
d="M129 821v248h952v-248h-952zM129 365v247h952v-247h-952z" />
    <glyph glyph-name="greater" unicode="&#x3e;" 
d="M1085 805v-248l-890 -424v299l532 248l-532 248v299z" />
    <glyph glyph-name="question" unicode="?" horiz-adv-x="1171" 
d="M408 631l282 184q64 40 98 98q35 59 35 127q0 66 -45 105t-129 39t-139 -49t-70 -138h-321q41 219 190 344q151 127 369 127q212 0 346 -110q135 -111 135 -285q0 -139 -69 -256q-71 -120 -185 -194l-215 -140h-303zM721 176q0 -82 -59 -141q-58 -58 -148 -58
q-89 0 -147 58t-58 141q0 90 58 148q57 57 147 57q91 0 148 -57q59 -59 59 -148z" />
    <glyph glyph-name="at" unicode="@" horiz-adv-x="1849" 
d="M786 160l-12 -8q-133 0 -219 92t-86 239q0 181 115 308t276 127q80 0 139 -27q61 -26 103 -80l20 90h258l-102 -426q-21 -95 0 -141q21 -47 86 -47q89 0 147 98q58 94 58 248q0 242 -183 399q-184 158 -460 158q-280 0 -467 -178t-187 -465q0 -281 185 -451
q180 -168 465 -168q81 0 161 13q68 11 127 34v-184q-70 -25 -131 -35q-74 -12 -155 -12q-177 0 -326 57q-159 59 -274 166q-121 112 -185 258q-63 141 -63 326q0 187 63 334q63 152 185 268q119 110 278 170q165 59 332 59q358 0 600 -211q244 -212 244 -530
q0 -244 -119 -387t-332 -143q-102 0 -178 43q-78 45 -105 120q-54 -60 -116 -86q-70 -28 -142 -28zM741 502h-2q0 -77 31 -119q29 -39 90 -39q77 0 127 68q49 67 49 163q0 65 -37 105q-36 39 -94 39q-71 0 -117 -64q-47 -65 -47 -153z" />
    <glyph glyph-name="A" unicode="A" horiz-adv-x="1439" 
d="M672 1440h348l313 -1440h-338l-49 258h-530l-123 -258h-344zM895 530l-100 527l-250 -527h350z" />
    <glyph glyph-name="B" unicode="B" horiz-adv-x="1394" 
d="M758 0l-676 4l201 1440h600q191 0 313 -98q123 -99 123 -254q0 -120 -62 -209q-63 -91 -180 -142q107 -46 166 -129q60 -85 60 -190q0 -192 -154 -307q-157 -115 -391 -115zM979 1036l2 -2q0 67 -47 105q-46 37 -129 37h-232l-43 -314h248q91 0 146 49t55 125zM973 457
h-4q0 64 -49 104q-53 41 -134 41h-294l-48 -334h312q100 0 157 51q60 54 60 138z" />
    <glyph glyph-name="C" unicode="C" horiz-adv-x="1652" 
d="M1253 600l349 -2q-67 -283 -283 -457q-214 -172 -504 -172q-317 0 -518 195q-199 193 -199 491q0 158 60 312q61 153 170 262q115 115 258 176q146 61 311 61q296 0 492 -166q197 -167 227 -432h-348q-35 133 -135 211q-103 80 -246 80q-187 0 -316 -141t-129 -342
q0 -178 107 -285q107 -110 282 -110q147 0 259 86q109 85 163 233z" />
    <glyph glyph-name="D" unicode="D" horiz-adv-x="1562" 
d="M643 0l-563 -2l201 1440h550q290 0 484 -185t194 -462q0 -362 -239 -576q-241 -215 -627 -215zM565 1130l-116 -825h225q223 0 358 123t135 340q0 167 -106 264q-107 98 -285 98h-211z" />
    <glyph glyph-name="E" unicode="E" horiz-adv-x="1196" 
d="M1018 0h-938l203 1440h927l-41 -297h-602l-39 -273h553l-39 -280h-553l-40 -293h610z" />
    <glyph glyph-name="F" unicode="F" horiz-adv-x="1159" 
d="M406 0h-326l203 1440h927l-43 -297h-600l-39 -291h551l-41 -293h-553z" />
    <glyph glyph-name="G" unicode="G" horiz-adv-x="1654" 
d="M1577 760l-104 -758h-273l25 166q-81 -93 -193 -143t-246 -50q-303 0 -493 193q-191 194 -191 487q0 341 228 578q226 235 565 235q277 0 467 -147q189 -146 227 -387h-356q-40 107 -129 166t-221 59q-188 0 -316 -143q-129 -144 -129 -346q0 -187 111 -295
q107 -107 309 -107q125 0 225 62q99 62 152 176h-408l35 254h715z" />
    <glyph glyph-name="H" unicode="H" horiz-adv-x="1466" 
d="M406 0h-326l203 1440h325l-76 -553h500l76 553h326l-203 -1440h-324l80 580h-500z" />
    <glyph glyph-name="I" unicode="I" horiz-adv-x="641" 
d="M406 0h-326l203 1440h325z" />
    <glyph glyph-name="J" unicode="J" horiz-adv-x="1198" 
d="M852 1440h330l-140 -987q-30 -221 -178 -351q-147 -129 -364 -129q-225 0 -365 146q-138 144 -123 373h322q-3 -102 43 -160t135 -58q86 0 139 56q54 57 68 155z" />
    <glyph glyph-name="K" unicode="K" horiz-adv-x="1341" 
d="M283 1440h325l-82 -594l539 594h405l-643 -695l445 -745h-385l-387 668l-94 -668h-326z" />
    <glyph glyph-name="L" unicode="L" horiz-adv-x="1081" 
d="M979 0h-899l203 1440h325l-159 -1143h571z" />
    <glyph glyph-name="M" unicode="M" horiz-adv-x="1957" 
d="M395 0h-315l203 1440h385l307 -901l553 901h397l-203 -1440h-313l127 911l-569 -913h-129l-314 922z" />
    <glyph glyph-name="N" unicode="N" horiz-adv-x="1480" 
d="M387 0h-307l203 1440h307l424 -905l127 905h307l-203 -1440h-311l-420 899z" />
    <glyph glyph-name="O" unicode="O" horiz-adv-x="1689" 
d="M334 1235l-6 2q112 109 260 172q146 61 313 61q321 0 526 -190q207 -192 207 -498q0 -165 -61 -311q-62 -148 -174 -260t-260 -174t-312 -62q-319 0 -526 195q-203 194 -203 492q0 163 62 311q66 154 174 262zM432 676v4q0 -174 111 -285q110 -110 293 -110
q194 0 325 137t131 340q0 176 -110 289q-109 112 -293 112q-194 0 -326 -141q-131 -137 -131 -346z" />
    <glyph glyph-name="P" unicode="P" horiz-adv-x="1335" 
d="M406 0l-322 -4l201 1440h573q211 0 348 -125q142 -127 142 -316q0 -244 -172 -385t-449 -141h-256zM799 1153h-230l-55 -401h236q115 0 186 59q70 58 70 160q0 79 -58 131q-57 51 -149 51z" />
    <glyph glyph-name="Q" unicode="Q" horiz-adv-x="1689" 
d="M334 1235l-6 -2q112 109 260 172q146 61 313 61q321 0 526 -190q207 -192 207 -498q0 -186 -84 -362q-82 -168 -233 -283l174 -299h-338l-98 170q-66 -17 -111 -22q-68 -7 -117 -7q-319 0 -526 195q-203 194 -203 492q0 163 62 311q66 154 174 262zM428 672l-6 -8
q0 -179 113 -289q114 -111 294 -111h27q3 0 31 4l-256 443h338l182 -316q65 65 104 160q37 90 37 197q0 179 -110 292q-112 115 -295 115q-196 0 -328 -141q-131 -137 -131 -346z" />
    <glyph glyph-name="R" unicode="R" horiz-adv-x="1388" 
d="M408 0l-328 -2l201 1440h567q215 0 352 -119q141 -120 141 -303t-110 -305q-111 -123 -303 -166l352 -545h-379l-326 524h-96zM795 1155l-232 -4l-51 -369h236q114 0 182 56q67 55 67 149q0 75 -55 121q-59 47 -147 47z" />
    <glyph glyph-name="S" unicode="S" horiz-adv-x="1273" 
d="M702 1466q243 0 388 -127t139 -344h-334q3 91 -49 140t-154 49q-85 0 -137 -37q-51 -36 -51 -100q0 -47 31 -78q33 -33 104 -56l190 -65q181 -61 263 -160q84 -104 84 -242q0 -217 -148 -344q-151 -127 -393 -127q-271 0 -428 136q-158 137 -146 370h332q-6 -99 60 -159
q64 -58 182 -58q96 0 151 43q56 44 56 119q0 53 -31 84q-28 28 -129 65l-207 76q-146 53 -223 148q-76 94 -76 227q0 198 146 320q144 120 380 120z" />
    <glyph glyph-name="T" unicode="T" horiz-adv-x="1159" 
d="M664 0h-324l160 1143h-385l41 297h1099l-43 -297h-387z" />
    <glyph glyph-name="U" unicode="U" horiz-adv-x="1421" 
d="M944 492l129 950h324l-135 -981q-30 -225 -189 -357q-156 -129 -397 -129q-255 0 -412 160t-123 406l125 901h326l-125 -914q-15 -110 47 -178q61 -67 174 -67q107 0 174 55q67 58 82 154z" />
    <glyph glyph-name="V" unicode="V" horiz-adv-x="1378" 
d="M786 0h-348l-276 1440h352l164 -983l436 983h354z" />
    <glyph glyph-name="W" unicode="W" horiz-adv-x="2111" 
d="M717 0h-346l-209 1440h342l112 -985l414 985h299l141 -985l385 985h345l-615 -1440h-346l-137 866z" />
    <glyph glyph-name="X" unicode="X" horiz-adv-x="1388" 
d="M293 0h-379l612 743l-379 697h373l234 -451l366 451h373l-582 -707l416 -733h-377l-266 479z" />
    <glyph glyph-name="Y" unicode="Y" horiz-adv-x="1361" 
d="M768 0h-326l70 487l-352 953h356l201 -598l381 598h354l-612 -936z" />
    <glyph glyph-name="Z" unicode="Z" horiz-adv-x="1239" 
d="M1081 0h-1079l37 260l758 883h-613l41 297h1045l-39 -262l-756 -881h649z" />
    <glyph glyph-name="bracketleft" unicode="[" horiz-adv-x="759" 
d="M850 1659l-43 -287h-225l-193 -1372h225l-39 -287h-538l274 1946h539z" />
    <glyph glyph-name="backslash" unicode="\" horiz-adv-x="1431" 
d="M518 1659l760 -1946h-328l-760 1946h328z" />
    <glyph glyph-name="bracketright" unicode="]" horiz-adv-x="757" 
d="M-49 -287l43 287h225l193 1372h-226l39 287h539l-275 -1946h-538z" />
    <glyph glyph-name="asciicircum" unicode="^" 
d="M449 1440h301l378 -858h-327l-203 477l-205 -477h-330z" />
    <glyph glyph-name="underscore" unicode="_" horiz-adv-x="901" 
d="M-119 -166h905v-268h-905v268z" />
    <glyph glyph-name="grave" unicode="`" horiz-adv-x="634" 
d="M242 1163l-129 305h293l124 -305h-288z" />
    <glyph glyph-name="a" unicode="a" horiz-adv-x="1126" 
d="M594 813l-6 -4q-57 0 -105 -31q-45 -29 -67 -90h-305q46 173 180 277q138 102 321 102q214 0 324 -125t80 -338l-90 -606h-293l14 102q-51 -63 -123 -98q-65 -33 -153 -33q-144 0 -236 80t-92 207q0 146 100 233q102 88 314 129l266 50q9 66 -25 106q-33 39 -104 39z
M346 299v2q0 -38 29 -61q30 -23 80 -23q81 0 145 64q68 65 80 149l4 27l-207 -41q-68 -15 -100 -43q-31 -28 -31 -74z" />
    <glyph glyph-name="b" unicode="b" horiz-adv-x="1349" 
d="M356 0l-299 -2l213 1518h312l-80 -578q61 61 143 98q73 33 168 33q211 0 340 -135t129 -346q0 -269 -154 -443q-153 -172 -395 -172q-119 0 -211 50q-91 49 -143 143zM950 555l-2 -4q0 99 -67 166t-168 67q-124 0 -203 -82q-80 -83 -80 -208q0 -107 68 -175
q67 -67 178 -67q119 0 196 86q78 90 78 217z" />
    <glyph glyph-name="c" unicode="c" horiz-adv-x="1239" 
d="M616 260l-6 2q91 0 152 43t96 127h307q-46 -217 -192 -338q-143 -119 -377 -119q-231 0 -381 144q-152 146 -152 358q0 255 166 424q167 170 420 170q220 0 367 -129q149 -131 164 -328h-301q-21 78 -84 123q-65 47 -142 47q-126 0 -202 -79q-76 -76 -76 -209
q0 -101 67 -168q68 -68 174 -68z" />
    <glyph glyph-name="d" unicode="d" horiz-adv-x="1345" 
d="M1354 1518l-213 -1518h-295l16 121q-68 -71 -151 -109q-81 -37 -179 -37q-209 0 -339 136t-130 346q0 266 154 440q153 172 393 172q116 0 203 -43q83 -39 143 -127l86 619h312zM397 483q0 -99 68 -164q71 -65 170 -65q125 0 201 82q77 83 77 209q0 109 -67 176t-176 67
q-120 0 -197 -86q-76 -82 -76 -219z" />
    <glyph glyph-name="e" unicode="e" horiz-adv-x="1232" 
d="M606 223h-2q71 0 127 29q54 28 84 86h313q-61 -168 -204 -266q-144 -99 -332 -99q-235 0 -381 140q-145 139 -145 356q0 257 167 424q169 172 414 172q232 0 375 -137q145 -139 145 -353q0 -34 -2 -57q-5 -63 -8 -76h-799q12 -100 80 -159q72 -60 168 -60zM641 817v-2
q-85 0 -147 -45q-68 -46 -105 -123h485q-21 80 -81 125q-57 45 -152 45z" />
    <glyph glyph-name="f" unicode="f" horiz-adv-x="811" 
d="M578 764l-103 -766h-313l106 764h-172l39 278h172l17 113q27 198 129 293q104 96 276 96q61 0 113 -8q43 -7 106 -27l-37 -270q-27 12 -67 18q-47 7 -74 7q-62 0 -98 -31q-34 -29 -43 -101l-13 -88h234l-39 -278h-233z" />
    <glyph glyph-name="g" unicode="g" horiz-adv-x="1290" 
d="M4 -47l295 -2q3 -75 66 -117q61 -43 165 -43q96 0 160 55t76 148l22 162q-63 -57 -129 -82q-67 -27 -153 -27q-192 0 -313 127t-121 320q0 244 145 409q144 164 363 164q113 0 198 -43q84 -41 137 -127l21 145h295l-146 -1034q-30 -220 -174 -346q-143 -125 -370 -125
q-233 0 -383 117q-151 118 -154 299zM608 315l-2 -2q108 0 176 74t68 184q0 95 -62 154q-65 59 -161 59q-103 0 -170 -73q-68 -74 -68 -185q0 -94 62 -153q58 -58 157 -58z" />
    <glyph glyph-name="h" unicode="h" horiz-adv-x="1234" 
d="M371 0h-320l213 1518h311l-77 -557q58 52 129 79q79 29 147 29q180 0 279 -123q97 -121 73 -303l-90 -645h-313l82 586q12 96 -27 147t-129 51q-76 0 -129 -47q-52 -46 -61 -114z" />
    <glyph glyph-name="i" unicode="i" horiz-adv-x="579" 
d="M211 1343v-4q0 83 53 136q51 51 142 51q88 0 139 -51q53 -53 53 -136q0 -78 -53 -131q-51 -51 -139 -51q-89 0 -142 53t-53 133zM371 -4h-312l148 1042h311z" />
    <glyph glyph-name="j" unicode="j" horiz-adv-x="595" 
d="M602 1352l-4 4q0 -78 -51 -129t-131 -51t-131 51q-52 52 -52 129q0 78 52 127t131 49q82 0 133 -51q53 -53 53 -129zM66 -45l147 1089h313l-155 -1114q-27 -203 -127 -295q-104 -96 -277 -96q-45 0 -88 6q-46 6 -67 15l36 270l39 -6q14 -2 37 -2q63 0 99 31q34 29 43 102
z" />
    <glyph glyph-name="k" unicode="k" horiz-adv-x="1128" 
d="M371 0h-312l213 1518h312l-125 -891l348 415h360l-413 -479l315 -563h-354l-275 492z" />
    <glyph glyph-name="l" unicode="l" horiz-adv-x="581" 
d="M274 1518h312l-213 -1518h-312z" />
    <glyph glyph-name="m" unicode="m" horiz-adv-x="1863" 
d="M1288 782l-8 -6q-68 0 -121 -47q-50 -47 -59 -121l-86 -614h-314l84 586q15 94 -24 145q-41 53 -123 53q-70 0 -123 -47q-50 -47 -59 -121l-88 -614h-312l148 1042h295l-15 -100q54 60 129 94q67 33 156 33q110 0 184 -45q80 -46 123 -129q59 83 146 129q89 47 188 47
q180 0 279 -123q98 -122 71 -303l-90 -643h-313l82 586q15 93 -25 145q-41 53 -125 53z" />
    <glyph glyph-name="n" unicode="n" horiz-adv-x="1234" 
d="M369 0l-320 -2l148 1042h295l-17 -104q57 63 135 98q81 35 162 35q180 0 279 -123q97 -121 73 -303l-90 -645h-313l82 586q12 96 -27 147t-129 51q-76 0 -129 -47q-52 -46 -61 -123z" />
    <glyph glyph-name="o" unicode="o" horiz-adv-x="1265" 
d="M1200 565h-4q0 -253 -172 -422q-176 -170 -426 -170q-239 0 -387 142t-148 360q0 248 170 424q169 172 424 172q243 0 392 -143q151 -145 151 -363zM371 496v4q0 -101 67 -168q68 -68 174 -68q120 0 197 80q78 84 78 203q0 102 -68 170q-67 67 -168 67q-126 0 -202 -79
q-78 -84 -78 -209z" />
    <glyph glyph-name="p" unicode="p" horiz-adv-x="1345" 
d="M1280 588h2q0 -269 -154 -443q-153 -172 -395 -172q-111 0 -198 43q-90 44 -144 125l-80 -575h-311l207 1476h297l-17 -120q64 70 148 108q81 37 178 37q209 0 338 -135t129 -344zM950 557l2 -4q0 99 -67 166t-168 67q-125 0 -203 -81q-80 -83 -80 -209q0 -106 68 -174
t176 -68q119 0 196 86q76 82 76 217z" />
    <glyph glyph-name="q" unicode="q" horiz-adv-x="1347" 
d="M66 455l2 2q0 267 153 440q153 172 393 172q122 0 213 -49q94 -52 146 -143l24 167h293l-207 -1476h-311l74 536q-60 -60 -144 -98q-73 -33 -167 -33q-210 0 -340 136q-129 135 -129 346zM399 485q0 -98 68 -163q72 -66 170 -66q125 0 201 82q77 83 77 209q0 109 -67 176
q-68 68 -176 68q-120 0 -197 -86q-76 -82 -76 -220z" />
    <glyph glyph-name="r" unicode="r" horiz-adv-x="821" 
d="M205 1042l291 -2l-19 -125q60 72 135 109t166 37q25 0 39 -2l43 -6l-43 -291q-12 3 -23.5 4.5t-22.5 2t-15 1.5q-14 2 -37 2q-114 0 -184 -67q-74 -74 -91 -187l-75 -518h-312z" />
    <glyph glyph-name="s" unicode="s" horiz-adv-x="1050" 
d="M559 1069l2 6q195 0 313 -92q117 -91 117 -254h-315q3 56 -27 80q-31 25 -94 25q-55 0 -82 -21q-31 -22 -31 -57q0 -32 25 -51q26 -19 92 -37l62 -17q184 -47 258 -121q77 -74 77 -188q0 -167 -120 -266t-318 -99q-221 0 -356 97q-130 95 -127 270h325q-3 -59 35 -94
q33 -33 109 -33q56 0 92 25q35 24 35 67q0 33 -23 53t-90 37l-94 27q-168 46 -236 117q-67 70 -67 188q0 155 123 246q124 92 315 92z" />
    <glyph glyph-name="t" unicode="t" horiz-adv-x="843" 
d="M836 1042l-41 -282h-248l-58 -383q-9 -69 19 -105q25 -32 102 -32q26 0 68 10q33 10 67 29l-38 -279q-27 -14 -76 -20q-51 -7 -92 -7q-213 0 -301 101q-90 104 -60 303l58 387h-162l39 278h166l47 314l317 53l-53 -367h246z" />
    <glyph glyph-name="u" unicode="u" horiz-adv-x="1214" 
d="M846 1042l309 -2l-147 -1042h-293l14 100q-54 -60 -129 -94q-67 -33 -156 -33q-175 0 -270 121q-94 119 -70 301l91 645h313l-84 -587q-12 -91 27 -142q41 -53 122 -53q76 0 125 49q50 50 62 131z" />
    <glyph glyph-name="v" unicode="v" horiz-adv-x="1146" 
d="M674 0h-348l-228 1042h322l133 -657l315 657h330z" />
    <glyph glyph-name="w" unicode="w" horiz-adv-x="1779" 
d="M610 0h-315l-199 1042h303l115 -649l297 649h299l115 -651l295 651h311l-494 -1042h-313l-119 618z" />
    <glyph glyph-name="x" unicode="x" horiz-adv-x="1103" 
d="M276 0h-346l445 530l-283 512h342l154 -288l235 288h340l-430 -518l293 -524h-346l-160 295z" />
    <glyph glyph-name="y" unicode="y" horiz-adv-x="1142" 
d="M864 1042h328l-733 -1476h-322l203 416l-246 1060h322l133 -647z" />
    <glyph glyph-name="z" unicode="z" horiz-adv-x="1071" 
d="M934 0h-944l28 207l578 557h-467l41 278h881l-31 -221l-559 -542h512z" />
    <glyph glyph-name="braceleft" unicode="{" horiz-adv-x="759" 
d="M104 608l-36 -8l34 260h50q51 0 79 31t37 100l47 316q27 183 129 274q103 92 277 92q42 0 65 -2l60 -6l-41 -287l-37 6q-14 2 -37 2q-49 0 -74 -32q-27 -34 -36 -101l-41 -282q-15 -100 -50 -154q-36 -55 -98 -84q56 -41 74 -104q19 -70 4 -160l-51 -348q-12 -77 16 -113
q26 -33 103 -33h18q10 0 12 2l-41 -286h-35q-213 0 -315 108q-100 106 -70 314l52 344q12 75 -13 114q-24 37 -82 37z" />
    <glyph glyph-name="bar" unicode="|" horiz-adv-x="702" 
d="M215 1659h311v-1946h-311v1946z" />
    <glyph glyph-name="braceright" unicode="}" horiz-adv-x="761" 
d="M698 764l29 -2l-35 -260h-49q-52 0 -80 -31t-37 -100l-47 -316q-27 -180 -129 -272q-103 -92 -276 -92q-18 0 -64 4l-57 6l41 287l37 -6q14 -2 37 -2q48 0 73 32q28 36 37 101l41 282q15 102 49 154q36 55 99 84q-56 41 -74 104q-19 70 -4 160l51 348q12 79 -16 115
q-27 35 -103 35h-16q-10 0 -12 -2l40 286h35q216 0 316 -106q99 -105 69 -313l-51 -345q-12 -77 12 -114t84 -37z" />
    <glyph glyph-name="asciitilde" unicode="~" 
d="M670 864l12 -4q81 -31 104 -37q27 -8 68 -8q69 0 123 31q51 29 110 112v-307q-25 -45 -102 -88q-70 -37 -160 -37q-52 0 -106 13q-45 11 -125 47q-66 34 -111 43q-52 10 -88 10q-76 0 -135 -35q-58 -34 -117 -117v295q30 59 105 103q73 43 160 43q54 0 114 -13
q70 -18 148 -51z" />
    <glyph glyph-name="uni00A0" unicode="&#xa0;" horiz-adv-x="456" 
 />
    <glyph glyph-name="exclamdown" unicode="&#xa1;" horiz-adv-x="585" 
d="M135 870h-4q0 83 59 142q57 57 148 57q90 0 147 -57q60 -60 60 -142q0 -89 -58 -147q-57 -57 -147 -57t-147 57q-58 58 -58 147zM190 559h201v-469l-69 -487h-330l69 487z" />
    <glyph glyph-name="cent" unicode="&#xa2;" horiz-adv-x="1259" 
d="M713 -16l-328 -68l43 303q-153 57 -240 180q-88 125 -88 285q0 225 131 387q130 161 344 199l27 203l322 71l-41 -297q144 -49 231 -162q91 -118 103 -264h-302q-21 78 -84 123q-65 47 -141 47q-126 0 -203 -80q-75 -75 -75 -209q0 -100 67 -167q68 -68 174 -68
q91 0 152 43t96 127h307q-41 -196 -159 -311q-121 -118 -308 -142z" />
    <glyph glyph-name="sterling" unicode="&#xa3;" horiz-adv-x="1388" 
d="M1231 0l-1223 4l37 256q98 21 166 92q68 74 88 178h-215l35 256h180q-2 31 -2 72v47q0 264 154 412q153 147 397 147q226 0 369 -137q144 -138 147 -377h-330q0 102 -49 154q-50 53 -141 53q-104 0 -160 -59q-55 -58 -55 -170v-72q2 -23 2 -45v-27h325l-36 -256h-291
q-8 -57 -37 -120q-26 -57 -68 -111h746z" />
    <glyph glyph-name="currency" unicode="&#xa4;" horiz-adv-x="1372" 
d="M346 170l-317 -2l299 350q-18 49 -25 80q-8 31 -8 80q0 66 18 127q17 60 56 121l-189 327h297l92 -161q44 16 84 24q52 10 86 10q53 0 99 -12q31 -9 86 -35l147 174h315l-296 -350q18 -35 28 -80q10 -52 10 -88q0 -63 -18 -125q-18 -61 -55 -116l184 -324h-297l-90 156
q-49 -18 -84 -25q-36 -8 -86 -8q-48 0 -98 12q-44 11 -92 37zM721 874l-2 3q-74 0 -127 -56q-53 -59 -53 -131q0 -63 43 -106t106 -43q80 0 135 49q56 50 56 127q0 67 -45 112t-113 45z" />
    <glyph glyph-name="yen" unicode="&#xa5;" horiz-adv-x="1404" 
d="M791 0h-326l35 248h-373l27 211h376l5 28l-23 64h-344l27 211h237l-250 678h357l200 -598l381 598h355l-445 -678h240l-27 -211h-350l-31 -47l-6 -45h373l-27 -211h-377z" />
    <glyph glyph-name="brokenbar" unicode="&#xa6;" horiz-adv-x="712" 
d="M221 1659h311v-819h-311v819zM221 -287v819h311v-819h-311z" />
    <glyph glyph-name="section" unicode="&#xa7;" horiz-adv-x="1196" 
d="M686 512l-197 92q-173 77 -256 182q-83 109 -83 240q0 200 143 322t369 122q240 0 387 -129q148 -130 139 -340h-322q3 91 -49 140t-147 49q-83 0 -135 -43t-52 -113q0 -47 41 -94q33 -35 219 -143l299 -168l-18 -117h-338zM498 498l194 -107q190 -100 264 -196
q78 -104 78 -218q0 -199 -141 -319q-145 -121 -365 -121q-244 0 -391 129q-148 130 -139 340h321q-3 -87 50 -137q52 -49 147 -49q84 0 133 43t49 114q0 54 -45 99q-47 47 -211 137l-301 166l19 119h338z" />
    <glyph glyph-name="dieresis" unicode="&#xa8;" horiz-adv-x="827" 
d="M387 1311h-2q0 -65 -43 -111q-42 -45 -106 -45q-67 0 -109 45q-43 46 -43 111q0 64 43 110q42 45 109 45q66 0 108 -45q43 -46 43 -110zM743 1311h-2q0 -65 -43 -111q-42 -45 -106 -45q-66 0 -111 45t-45 111q0 65 45 110t111 45t108 -45q43 -46 43 -110z" />
    <glyph glyph-name="copyright" unicode="&#xa9;" horiz-adv-x="1658" 
d="M1599 721l-4 -2q0 -312 -217 -529q-219 -219 -524 -219q-309 0 -528 219q-220 220 -220 529q0 308 220 528q219 219 528 219t526 -217q219 -219 219 -528zM262 719l-4 -2q0 -244 174 -418t418 -174q241 0 412 174q172 175 172 418q0 244 -172 416t-412 172
q-244 0 -416 -172t-172 -414zM850 1122l4 -4q163 0 270 -94q111 -92 133 -246h-245q-21 55 -64 84q-45 31 -98 31q-77 0 -125 -51q-49 -52 -49 -129t49 -129t127 -52q55 0 100 31q45 34 60 82h245q-24 -152 -135 -246q-107 -94 -270 -94q-184 0 -301 117t-117 293
q0 174 117 291q116 116 299 116z" />
    <glyph glyph-name="ordfeminine" unicode="&#xaa;" horiz-adv-x="733" 
d="M401 1280l-176 -4q15 84 84 135q71 53 164 53q117 0 178 -61q62 -62 47 -166l-45 -309h-161l6 47q-25 -28 -62 -43q-46 -17 -80 -17q-71 0 -118 41q-45 39 -45 105q0 77 55 123t166 61l118 19q3 32 -12 47q-16 16 -49 16q-27 0 -45 -12q-19 -12 -25 -35zM373 1085v-2
q0 -15 12 -24q8 -8 33 -8q34 0 61 24q28 25 31 53l2 13l-80 -15q-31 -3 -45 -12q-14 -8 -14 -29zM160 793h483l-27 -185h-483z" />
    <glyph glyph-name="guillemotleft" unicode="&#xab;" horiz-adv-x="1087" 
d="M223 74l-160 448l287 451h309l-299 -469l156 -430h-293zM645 74l-160 448l287 451h309l-299 -469l156 -430h-293z" />
    <glyph glyph-name="logicalnot" unicode="&#xac;" 
d="M102 588v248h953v-594h-248v346h-705z" />
    <glyph glyph-name="uni00AD" unicode="&#xad;" horiz-adv-x="765" 
d="M137 700h506v-272h-506v272z" />
    <glyph glyph-name="registered" unicode="&#xae;" horiz-adv-x="1218" 
d="M666 438l-4 -2q-215 0 -365 150t-150 362q0 219 150 369q149 149 365 149q219 0 368 -149q150 -150 150 -369q0 -215 -150 -362q-151 -148 -364 -148zM662 1325v-2q-157 0 -265 -111q-108 -114 -108 -266q0 -156 108 -264q109 -109 265 -109q155 0 264 109
q108 108 108 264q0 154 -108 268q-108 111 -264 111zM616 713l-157 -2v475h235q84 0 135 -45q56 -47 56 -117q0 -38 -23 -82q-20 -39 -61 -63l106 -166h-178l-86 135h-27v-135zM676 1055h-62v-90h62q23 0 35 12t12 35q0 18 -12 30q-13 13 -35 13z" />
    <glyph glyph-name="macron" unicode="&#xaf;" horiz-adv-x="755" 
d="M662 1198h-594l28 209h594z" />
    <glyph glyph-name="degree" unicode="&#xb0;" horiz-adv-x="776" 
d="M793 1151l2 -4q0 -131 -95 -223q-96 -93 -227 -93q-132 0 -225 93q-92 92 -92 225t92 225t225 92q135 0 227 -92q93 -93 93 -223zM342 1147v4q0 -53 39 -92t92 -39t92 39t39 92q0 54 -39 90q-40 37 -92 37q-53 0 -92 -39t-39 -92z" />
    <glyph glyph-name="plusminus" unicode="&#xb1;" 
d="M700 381h-247v283h-353v245h353v283h247v-283h353v-245h-353v-283zM100 2v248h951v-248h-951z" />
    <glyph glyph-name="twosuperior" unicode="&#xb2;" horiz-adv-x="669" 
d="M479 1202l221 6l-26 -194h-543l25 180l288 213q34 24 50 49q16 29 16 49q0 23 -12 35t-37 12q-27 0 -45 -18t-21 -45h-211q21 114 103 184q84 72 192 72q116 0 185 -57t69 -154q0 -74 -37 -135q-39 -66 -147 -144z" />
    <glyph glyph-name="threesuperior" unicode="&#xb3;" horiz-adv-x="663" 
d="M502 1245h-2q0 28 -25 47t-61 19h-62l21 145h69q34 0 58 17q18 15 18 49q0 25 -14 39t-39 14q-23 0 -45 -16q-19 -16 -25 -48h-209q20 103 99 170q78 66 188 66q117 0 184 -55q68 -56 68 -138q0 -56 -25 -104q-24 -47 -75 -70q40 -24 61 -61q21 -34 21 -82
q0 -100 -78 -172q-76 -70 -203 -70q-135 0 -205 64q-74 65 -74 172h201q3 -25 23 -45q19 -19 49 -19q38 0 59 21q23 23 23 57z" />
    <glyph glyph-name="acute" unicode="&#xb4;" horiz-adv-x="634" 
d="M367 1163h-306l213 305h310z" />
    <glyph glyph-name="mu" unicode="&#xb5;" horiz-adv-x="1251" 
d="M866 1042l308 -2l-148 -1042h-293l15 100q-53 -59 -130 -94q-67 -33 -155 -33q-17 0 -45 4q-18 3 -39 13l-60 -426h-311l207 1476h313l-84 -598q-12 -90 27 -135q40 -49 123 -49q76 0 125 49t61 131z" />
    <glyph glyph-name="paragraph" unicode="&#xb6;" horiz-adv-x="1378" 
d="M934 1440l-246 -1727h-254l121 865h-16q-183 0 -299 110q-117 111 -117 287q0 218 151 342q150 123 381 123h279zM1085 -287h-256l242 1727h256z" />
    <glyph glyph-name="periodcentered" unicode="&#xb7;" horiz-adv-x="583" 
d="M522 719q0 -82 -59 -141q-58 -58 -148 -58q-89 0 -147 58q-57 57 -57 141q0 90 57 147q58 58 147 58q90 0 148 -58q59 -59 59 -147z" />
    <glyph glyph-name="cedilla" unicode="&#xb8;" horiz-adv-x="755" 
d="M100 -207l176 227h209l-98 -126q98 -9 160 -64q59 -56 59 -143q0 -116 -82 -189t-205 -73q-122 0 -198 61t-76 158h209q3 -26 22 -37q20 -13 50 -13q32 0 55 23q22 22 22 55q0 29 -18 47q-19 19 -51 19q-28 0 -43 -6t-25 -23z" />
    <glyph glyph-name="onesuperior" unicode="&#xb9;" horiz-adv-x="450" 
d="M426 1008h-205l76 526h-133l74 195h290z" />
    <glyph glyph-name="ordmasculine" unicode="&#xba;" horiz-adv-x="788" 
d="M207 1176l2 -2q0 120 86 206t209 86q115 0 188 -73q74 -74 74 -181q0 -123 -88 -208q-89 -86 -211 -86q-113 0 -186 73q-74 74 -74 185zM389 1182l2 -4q0 -42 25 -70q24 -27 67 -27q48 0 78 35q31 36 31 86q0 44 -27 68t-69 24q-48 0 -76 -32q-31 -36 -31 -80zM168 793
h537l-25 -185h-539z" />
    <glyph glyph-name="guillemotright" unicode="&#xbb;" horiz-adv-x="1091" 
d="M864 973l160 -449l-287 -450h-309l299 469l-156 430h293zM440 973l160 -449l-287 -450h-309l299 469l-156 430h293z" />
    <glyph glyph-name="onequarter" unicode="&#xbc;" horiz-adv-x="1486" 
d="M758 264l311 457h244l-305 -436h106l14 98l203 47l-22 -145h49l-27 -185h-49l-12 -100h-197l14 100h-354zM449 719h-205l75 526h-133l74 195h291zM1280 1440h256l-1294 -1440h-258z" />
    <glyph glyph-name="onehalf" unicode="&#xbd;" horiz-adv-x="1531" 
d="M1178 195l221 6l-27 -195h-543l25 180l289 213q31 22 49 50q16 29 16 49q0 22 -12 34q-13 13 -37 13q-26 0 -45 -19q-17 -17 -20 -45h-211q21 116 102 185q83 71 193 71q115 0 184 -57q70 -58 70 -154q0 -74 -37 -135q-37 -63 -148 -143zM444 725h-204l75 526h-133
l74 195h291zM1276 1446h256l-1294 -1440h-258z" />
    <glyph glyph-name="threequarters" unicode="&#xbe;" horiz-adv-x="1542" 
d="M805 264l311 457h244l-305 -436h106l15 98l202 47l-22 -145h49l-27 -185h-49l-12 -100h-197l15 100h-355zM1346 1440h256l-1295 -1440h-258zM487 954h-2q0 29 -24 47q-25 19 -62 19h-61l20 145h70q33 0 57 17q19 16 19 49q0 24 -15 39q-14 14 -38 14q-23 0 -45 -16
q-20 -16 -25 -47h-209q20 105 98 170q77 65 189 65q117 0 184 -55q68 -56 68 -137q0 -57 -25 -105q-23 -45 -76 -69q41 -24 62 -62q20 -33 20 -82q0 -100 -78 -172q-75 -69 -202 -69q-136 0 -205 63q-74 65 -74 172h201q3 -26 22 -45q18 -18 50 -18q39 0 59 20q22 22 22 57z
" />
    <glyph glyph-name="questiondown" unicode="&#xbf;" horiz-adv-x="1150" 
d="M430 870h-4q0 83 59 142q57 57 148 57q90 0 147 -57q60 -60 60 -142q0 -89 -58 -147q-57 -57 -147 -57q-91 0 -148 57t-57 147zM739 412l-284 -187q-65 -41 -99 -98q-34 -58 -34 -127q0 -63 47 -104q45 -39 129 -39t139 49t70 139h321q-41 -219 -190 -344
q-151 -127 -369 -127q-211 0 -346 111t-135 284q0 139 69 256q72 122 185 195l215 139h303z" />
    <glyph glyph-name="Agrave" unicode="&#xc0;" horiz-adv-x="1439" 
d="M672 1440h348l313 -1440h-338l-49 258h-530l-123 -258h-344zM895 530l-100 527l-250 -527h350zM694 1559l-129 305h293l125 -305h-289z" />
    <glyph glyph-name="Aacute" unicode="&#xc1;" horiz-adv-x="1439" 
d="M672 1440h348l313 -1440h-338l-49 258h-530l-123 -258h-344zM895 530l-100 527l-250 -527h350zM1012 1559h-305l213 305h309z" />
    <glyph glyph-name="Acircumflex" unicode="&#xc2;" horiz-adv-x="1439" 
d="M672 1440h348l313 -1440h-338l-49 258h-530l-123 -258h-344zM895 530l-100 527l-250 -527h350zM485 1559l248 305h348l160 -305h-264l-86 157l-127 -157h-279z" />
    <glyph glyph-name="Atilde" unicode="&#xc3;" horiz-adv-x="1439" 
d="M672 1440h348l313 -1440h-338l-49 258h-530l-123 -258h-344zM895 530l-100 527l-250 -527h350zM915 1800l-14 -4q27 -21 39 -27t23 -6q21 0 30 19q12 29 17 65h204q-9 -151 -63 -223q-56 -74 -162 -74q-37 0 -69 13q-34 15 -76 49q-26 26 -39 30q-14 7 -27 7
q-27 0 -39 -21t-18 -67h-207q9 150 68 227q58 76 170 76q36 0 77 -13q42 -12 86 -51z" />
    <glyph glyph-name="Adieresis" unicode="&#xc4;" horiz-adv-x="1439" 
d="M672 1440h348l313 -1440h-338l-49 258h-530l-123 -258h-344zM895 530l-100 527l-250 -527h350zM850 1704h-2q0 -65 -43 -111q-42 -45 -107 -45q-66 0 -108 45q-43 46 -43 111t43 111q42 45 108 45q67 0 109 -45q43 -46 43 -111zM1206 1704h-2q0 -65 -43 -111
q-42 -45 -106 -45q-66 0 -111 45t-45 111t45 111t111 45t108 -45q43 -46 43 -111z" />
    <glyph glyph-name="Aring" unicode="&#xc5;" horiz-adv-x="1439" 
d="M672 1440h348l313 -1440h-338l-49 258h-530l-123 -258h-344zM895 530l-100 527l-250 -527h350zM1130 1772l-2 2q0 -100 -71 -168t-176 -68q-107 0 -179 66q-69 63 -69 165q0 97 72 166q71 68 176 68q102 0 176 -68q73 -67 73 -163zM805 1774h-2q0 -34 22 -56t56 -22
q33 0 55 22t22 56q0 33 -22 55t-55 22q-34 0 -56 -22q-20 -20 -20 -55z" />
    <glyph glyph-name="AE" unicode="&#xc6;" horiz-adv-x="1966" 
d="M1788 0h-938l37 258h-475l-183 -258h-356l1028 1440h1079l-41 -297h-602l-39 -273h553l-39 -280h-552l-41 -293h610zM1004 1094l-398 -564h318z" />
    <glyph glyph-name="Ccedilla" unicode="&#xc7;" horiz-adv-x="1652" 
d="M1253 600l340 -14q-64 -263 -254 -432q-191 -170 -450 -191l-60 -78q100 -9 160 -63q60 -57 60 -144q0 -115 -82 -188q-83 -74 -205 -74t-199 62q-76 61 -76 157h209q3 -25 23 -36q19 -13 49 -13q32 0 55 23t23 55q0 28 -19 47t-51 19q-28 0 -43 -6q-13 -5 -24 -23
l-166 84l149 188q-269 41 -432 228q-162 186 -162 454q0 158 60 312q61 153 170 262q115 115 258 176q146 61 311 61q296 0 492 -166q197 -167 227 -432h-348q-35 133 -135 211q-103 80 -246 80q-187 0 -316 -141t-129 -342q0 -178 107 -285q107 -110 282 -110q147 0 259 86
q109 85 163 233z" />
    <glyph glyph-name="Egrave" unicode="&#xc8;" horiz-adv-x="1196" 
d="M596 1559l-129 305h293l125 -305h-289zM1018 0h-938l203 1440h927l-41 -297h-602l-39 -273h553l-39 -280h-553l-40 -293h610z" />
    <glyph glyph-name="Eacute" unicode="&#xc9;" horiz-adv-x="1196" 
d="M1018 0h-938l203 1440h927l-41 -297h-602l-39 -273h553l-39 -280h-553l-40 -293h610zM913 1559h-305l213 305h309z" />
    <glyph glyph-name="Ecircumflex" unicode="&#xca;" horiz-adv-x="1196" 
d="M387 1559l248 305h348l160 -305h-264l-86 157l-127 -157h-279zM1018 0h-938l203 1440h927l-41 -297h-602l-39 -273h553l-39 -280h-553l-40 -293h610z" />
    <glyph glyph-name="Edieresis" unicode="&#xcb;" horiz-adv-x="1196" 
d="M1018 0h-938l203 1440h927l-41 -297h-602l-39 -273h553l-39 -280h-553l-40 -293h610zM752 1704h-2q0 -65 -43 -111q-42 -45 -107 -45q-66 0 -108 45q-43 46 -43 111t43 111q42 45 108 45q67 0 109 -45q43 -46 43 -111zM1108 1704h-2q0 -65 -43 -111q-42 -45 -107 -45
t-110 45t-45 111t45 111t110 45q67 0 109 -45q43 -46 43 -111z" />
    <glyph glyph-name="Igrave" unicode="&#xcc;" horiz-adv-x="641" 
d="M406 0h-326l203 1440h325zM295 1559l-129 305h293l125 -305h-289z" />
    <glyph glyph-name="Iacute" unicode="&#xcd;" horiz-adv-x="641" 
d="M406 0h-326l203 1440h325zM612 1559h-305l213 305h309z" />
    <glyph glyph-name="Icircumflex" unicode="&#xce;" horiz-adv-x="641" 
d="M406 0h-326l203 1440h325zM86 1559l248 305h348l160 -305h-264l-86 157l-127 -157h-279z" />
    <glyph glyph-name="Idieresis" unicode="&#xcf;" horiz-adv-x="641" 
d="M406 0h-326l203 1440h325zM451 1704h-2q0 -65 -43 -111q-42 -45 -107 -45q-67 0 -109 45q-43 46 -43 111t43 111q42 45 109 45t109 -45q43 -46 43 -111zM807 1704h-2q0 -65 -43 -111q-42 -45 -107 -45t-110 45t-45 111t45 111t110 45q67 0 109 -45q43 -46 43 -111z" />
    <glyph glyph-name="Eth" unicode="&#xd0;" horiz-adv-x="1617" 
d="M698 0l-563 -2l84 604h-172l29 221h174l86 615h551q289 0 483 -185q195 -186 195 -462q0 -361 -240 -576q-241 -215 -627 -215zM547 602l-43 -297h225q223 0 358 123q136 124 136 340q0 166 -107 264t-285 98h-210l-43 -307h303l-29 -221h-305z" />
    <glyph glyph-name="Ntilde" unicode="&#xd1;" horiz-adv-x="1480" 
d="M938 1800l-14 -4q27 -21 39 -27t22 -6q21 0 31 19q11 25 16 65h205q-9 -151 -63 -223q-56 -74 -162 -74q-38 0 -70 13q-34 15 -76 49q-26 26 -39 30q-14 7 -26 7q-27 0 -39 -21q-13 -23 -19 -67h-206q9 151 67 227t170 76q37 0 78 -13q42 -12 86 -51zM373 -4h-307
l202 1440h307l424 -906l127 906h308l-203 -1440h-311l-420 899z" />
    <glyph glyph-name="Ograve" unicode="&#xd2;" horiz-adv-x="1689" 
d="M780 1559l-129 305h293l125 -305h-289zM334 1235l-6 2q112 109 260 172q146 61 313 61q321 0 526 -190q207 -192 207 -498q0 -165 -61 -311q-62 -148 -174 -260t-260 -174t-312 -62q-319 0 -526 195q-203 194 -203 492q0 163 62 311q66 154 174 262zM432 676v4
q0 -174 111 -285q110 -110 293 -110q194 0 325 137t131 340q0 176 -110 289q-109 112 -293 112q-194 0 -326 -141q-131 -137 -131 -346z" />
    <glyph glyph-name="Oacute" unicode="&#xd3;" horiz-adv-x="1689" 
d="M1098 1559h-305l213 305h309zM334 1235l-6 2q112 109 260 172q146 61 313 61q321 0 526 -190q207 -192 207 -498q0 -165 -61 -311q-62 -148 -174 -260t-260 -174t-312 -62q-319 0 -526 195q-203 194 -203 492q0 163 62 311q66 154 174 262zM432 676v4q0 -174 111 -285
q110 -110 293 -110q194 0 325 137t131 340q0 176 -110 289q-109 112 -293 112q-194 0 -326 -141q-131 -137 -131 -346z" />
    <glyph glyph-name="Ocircumflex" unicode="&#xd4;" horiz-adv-x="1689" 
d="M569 1559l248 305h348l160 -305h-264l-86 157l-127 -157h-279zM334 1235l-6 2q112 109 260 172q146 61 313 61q321 0 526 -190q207 -192 207 -498q0 -165 -61 -311q-62 -148 -174 -260t-260 -174t-312 -62q-319 0 -526 195q-203 194 -203 492q0 163 62 311
q66 154 174 262zM432 676v4q0 -174 111 -285q110 -110 293 -110q194 0 325 137t131 340q0 176 -110 289q-109 112 -293 112q-194 0 -326 -141q-131 -137 -131 -346z" />
    <glyph glyph-name="Otilde" unicode="&#xd5;" horiz-adv-x="1689" 
d="M334 1235l-6 2q112 109 260 172q146 61 313 61q321 0 526 -190q207 -192 207 -498q0 -165 -61 -311q-62 -148 -174 -260t-260 -174t-312 -62q-319 0 -526 195q-203 194 -203 492q0 163 62 311q66 154 174 262zM432 676v4q0 -174 111 -285q110 -110 293 -110
q194 0 325 137t131 340q0 176 -110 289q-109 112 -293 112q-194 0 -326 -141q-131 -137 -131 -346zM995 1806l-14 -4q23 -18 39 -26q14 -7 22 -7q22 0 31 19q12 29 17 65h204q-9 -151 -63 -223q-56 -74 -162 -74q-37 0 -70 13q-32 14 -75 49q-27 27 -39 31q-12 6 -27 6
q-27 0 -39 -21t-18 -67h-207q9 150 68 227q58 76 169 76q41 0 78 -12q40 -12 86 -52z" />
    <glyph glyph-name="Odieresis" unicode="&#xd6;" horiz-adv-x="1689" 
d="M334 1235l-6 2q112 109 260 172q146 61 313 61q321 0 526 -190q207 -192 207 -498q0 -165 -61 -311q-62 -148 -174 -260t-260 -174t-312 -62q-319 0 -526 195q-203 194 -203 492q0 163 62 311q66 154 174 262zM432 676v4q0 -174 111 -285q110 -110 293 -110
q194 0 325 137t131 340q0 176 -110 289q-109 112 -293 112q-194 0 -326 -141q-131 -137 -131 -346zM928 1710h-2q0 -65 -43 -111q-42 -45 -107 -45q-66 0 -108 45q-43 46 -43 111t43 111q42 45 108 45q67 0 109 -45q43 -46 43 -111zM1284 1710h-2q0 -65 -43 -111
q-42 -45 -106 -45q-66 0 -111 45t-45 111t45 111t111 45t108 -45q43 -46 43 -111z" />
    <glyph glyph-name="multiply" unicode="&#xd7;" 
d="M326 256l-176 174l284 283l-282 280l176 174l280 -280l281 280l174 -174l-281 -280l283 -283l-176 -174l-281 283z" />
    <glyph glyph-name="Oslash" unicode="&#xd8;" horiz-adv-x="1689" 
d="M516 31l-80 -101h-342l189 248q-94 97 -142 219q-49 122 -49 262q0 164 62 312q66 154 174 262q112 109 260 172q146 61 313 61q87 0 164 -14q76 -14 154 -43l75 100h344l-190 -252q94 -97 139 -213q47 -124 47 -264q0 -165 -61 -311q-62 -148 -174 -260t-260 -174
t-312 -62q-79 0 -161 15q-77 15 -150 43zM889 1157l-4 -2q-194 0 -326 -141q-131 -137 -131 -346q0 -57 16 -123q15 -57 50 -105l530 695l-68 16q-34 6 -67 6zM831 276l-2 3q195 0 326 137t131 340q0 57 -16 123q-15 60 -49 108l-527 -690q12 -3 33 -7t33 -7q40 -7 71 -7z
" />
    <glyph glyph-name="Ugrave" unicode="&#xd9;" horiz-adv-x="1421" 
d="M684 1559l-129 305h293l125 -305h-289zM944 492l129 950h324l-135 -981q-30 -225 -189 -357q-156 -129 -397 -129q-255 0 -412 160t-123 406l125 901h326l-125 -914q-15 -110 47 -178q61 -67 174 -67q107 0 174 55q67 58 82 154z" />
    <glyph glyph-name="Uacute" unicode="&#xda;" horiz-adv-x="1421" 
d="M944 492l129 950h324l-135 -981q-30 -225 -189 -357q-156 -129 -397 -129q-255 0 -412 160t-123 406l125 901h326l-125 -914q-15 -110 47 -178q61 -67 174 -67q107 0 174 55q67 58 82 154zM997 1561h-305l213 305h309z" />
    <glyph glyph-name="Ucircumflex" unicode="&#xdb;" horiz-adv-x="1421" 
d="M473 1559l248 305h348l160 -305h-264l-86 157l-127 -157h-279zM944 492l129 950h324l-135 -981q-30 -225 -189 -357q-156 -129 -397 -129q-255 0 -412 160t-123 406l125 901h326l-125 -914q-15 -110 47 -178q61 -67 174 -67q107 0 174 55q67 58 82 154z" />
    <glyph glyph-name="Udieresis" unicode="&#xdc;" horiz-adv-x="1421" 
d="M944 492l129 950h324l-135 -981q-30 -225 -189 -357q-156 -129 -397 -129q-255 0 -412 160t-123 406l125 901h326l-125 -914q-15 -110 47 -178q61 -67 174 -67q107 0 174 55q67 58 82 154zM836 1706h-2q0 -65 -43 -111q-42 -45 -107 -45q-67 0 -109 45q-43 46 -43 111
t43 111q42 45 109 45t109 -45q43 -46 43 -111zM1192 1706h-2q0 -65 -43 -111q-42 -45 -107 -45t-110 45t-45 111t45 111t110 45q67 0 109 -45q43 -46 43 -111z" />
    <glyph glyph-name="Yacute" unicode="&#xdd;" horiz-adv-x="1361" 
d="M768 0h-326l70 487l-352 953h356l201 -598l381 598h354l-612 -936zM979 1559h-305l213 305h309z" />
    <glyph glyph-name="Thorn" unicode="&#xde;" horiz-adv-x="1363" 
d="M281 1440l329 -2l-32 -234h256q203 0 348 -127q141 -126 141 -317q0 -242 -172 -383q-173 -141 -449 -141h-264l-32 -236h-326zM983 737h-2q0 81 -57 129q-58 49 -150 49h-235l-56 -397h244q114 0 186 60q70 58 70 159z" />
    <glyph glyph-name="germandbls" unicode="&#xdf;" horiz-adv-x="1290" 
d="M907 473l-8 4q0 83 -55 135q-60 54 -150 54h-110l32 237h95q86 0 141 55t55 140q0 70 -49 116q-46 46 -131 46q-83 0 -141 -52q-60 -54 -72 -135l-149 -1071h-314l150 1051q34 231 186 362q153 129 379 129q196 0 328 -108q131 -107 131 -283q0 -120 -56 -215
q-56 -96 -159 -147q91 -54 143 -142q51 -86 51 -192q0 -207 -137 -344q-140 -140 -334 -140q-83 0 -135 15q-52 13 -96 45l37 266q39 -24 71 -31q45 -10 84 -10q91 0 152 61t61 154z" />
    <glyph glyph-name="agrave" unicode="&#xe0;" horiz-adv-x="1126" 
d="M594 813l-6 -4q-57 0 -105 -31q-45 -29 -67 -90h-305q46 173 180 277q138 102 321 102q214 0 324 -125t80 -338l-90 -606h-293l14 102q-51 -63 -123 -98q-65 -33 -153 -33q-144 0 -236 80t-92 207q0 146 100 233q102 88 314 129l266 50q9 66 -25 106q-33 39 -104 39z
M346 299v2q0 -38 29 -61q30 -23 80 -23q81 0 145 64q68 65 80 149l4 27l-207 -41q-68 -15 -100 -43q-31 -28 -31 -74zM461 1161l-129 305h293l125 -305h-289z" />
    <glyph glyph-name="aacute" unicode="&#xe1;" horiz-adv-x="1126" 
d="M594 813l-6 -4q-57 0 -105 -31q-45 -29 -67 -90h-305q46 173 180 277q138 102 321 102q214 0 324 -125t80 -338l-90 -606h-293l14 102q-51 -63 -123 -98q-65 -33 -153 -33q-144 0 -236 80t-92 207q0 146 100 233q102 88 314 129l266 50q9 66 -25 106q-33 39 -104 39z
M346 299v2q0 -38 29 -61q30 -23 80 -23q81 0 145 64q68 65 80 149l4 27l-207 -41q-68 -15 -100 -43q-31 -28 -31 -74zM791 1161h-306l213 305h310z" />
    <glyph glyph-name="acircumflex" unicode="&#xe2;" horiz-adv-x="1126" 
d="M594 813l-6 -4q-57 0 -105 -31q-45 -29 -67 -90h-305q46 173 180 277q138 102 321 102q214 0 324 -125t80 -338l-90 -606h-293l14 102q-51 -63 -123 -98q-65 -33 -153 -33q-144 0 -236 80t-92 207q0 146 100 233q102 88 314 129l266 50q9 66 -25 106q-33 39 -104 39z
M346 299v2q0 -38 29 -61q30 -23 80 -23q81 0 145 64q68 65 80 149l4 27l-207 -41q-68 -15 -100 -43q-31 -28 -31 -74zM254 1161l248 305h348l160 -305h-265l-86 158l-127 -158h-278z" />
    <glyph glyph-name="atilde" unicode="&#xe3;" horiz-adv-x="1126" 
d="M594 813l-6 -4q-57 0 -105 -31q-45 -29 -67 -90h-305q46 173 180 277q138 102 321 102q214 0 324 -125t80 -338l-90 -606h-293l14 102q-51 -63 -123 -98q-65 -33 -153 -33q-144 0 -236 80t-92 207q0 146 100 233q102 88 314 129l266 50q9 66 -25 106q-33 39 -104 39z
M346 299v2q0 -38 29 -61q30 -23 80 -23q81 0 145 64q68 65 80 149l4 27l-207 -41q-68 -15 -100 -43q-31 -28 -31 -74zM700 1405l-14 -4q27 -21 39 -27t23 -6q21 0 30 18q12 28 17 66h204q-9 -151 -63 -223q-56 -74 -162 -74q-39 0 -69 12q-31 14 -76 50q-25 25 -39 30
q-12 6 -27 6q-28 0 -39 -20q-12 -21 -18 -68h-207q9 151 68 228q57 75 170 75q39 0 77 -12q42 -12 86 -51z" />
    <glyph glyph-name="adieresis" unicode="&#xe4;" horiz-adv-x="1126" 
d="M594 813l-6 -4q-57 0 -105 -31q-45 -29 -67 -90h-305q46 173 180 277q138 102 321 102q214 0 324 -125t80 -338l-90 -606h-293l14 102q-51 -63 -123 -98q-65 -33 -153 -33q-144 0 -236 80t-92 207q0 146 100 233q102 88 314 129l266 50q9 66 -25 106q-33 39 -104 39z
M346 299v2q0 -38 29 -61q30 -23 80 -23q81 0 145 64q68 65 80 149l4 27l-207 -41q-68 -15 -100 -43q-31 -28 -31 -74zM625 1309h-2q0 -65 -43 -111q-42 -45 -107 -45q-66 0 -108 45q-43 46 -43 111q0 64 43 110q42 45 108 45q67 0 109 -45q43 -46 43 -110zM981 1309h-2
q0 -65 -43 -111q-42 -45 -107 -45t-110 45t-45 111q0 65 45 110t110 45q67 0 109 -45q43 -46 43 -110z" />
    <glyph glyph-name="aring" unicode="&#xe5;" horiz-adv-x="1126" 
d="M594 813l-6 -4q-57 0 -105 -31q-45 -29 -67 -90h-305q46 173 180 277q138 102 321 102q214 0 324 -125t80 -338l-90 -606h-293l14 102q-51 -63 -123 -98q-65 -33 -153 -33q-144 0 -236 80t-92 207q0 146 100 233q102 88 314 129l266 50q9 66 -25 106q-33 39 -104 39z
M346 299v2q0 -38 29 -61q30 -23 80 -23q81 0 145 64q68 65 80 149l4 27l-207 -41q-68 -15 -100 -43q-31 -28 -31 -74zM901 1374l-2 2q0 -99 -72 -168q-70 -67 -176 -67q-107 0 -178 65q-70 64 -70 166q0 97 72 166q71 68 176 68q102 0 176 -68t74 -164zM575 1376h-2
q0 -32 23 -55t55 -23q33 0 56 23q22 22 22 55q0 34 -22 56t-56 22q-33 0 -55 -22q-21 -21 -21 -56z" />
    <glyph glyph-name="ae" unicode="&#xe6;" horiz-adv-x="1869" 
d="M596 813l-12 -8q-59 0 -107 -31q-45 -29 -67 -90h-306q46 172 181 277q138 102 315 102q103 0 184 -37q83 -38 131 -106q75 69 170 108q90 37 195 37q232 0 375 -137t143 -353q0 -34 -2 -57q-6 -67 -8 -78h-801q12 -100 80 -159q72 -60 170 -60q71 0 127 29q51 26 86 86
h311q-61 -165 -202 -264t-324 -99q-133 0 -250 60q-111 60 -174 166q-58 -108 -166 -166q-107 -58 -244 -58q-154 0 -258 78q-98 76 -98 203q0 146 100 233q102 88 314 129l266 50q9 66 -25 106q-33 39 -104 39zM1268 809h-2q-86 0 -148 -45q-65 -44 -104 -125h487
q-21 79 -82 125q-57 45 -151 45zM338 293q0 -40 31 -62q36 -22 84 -22q80 0 141 49q62 50 74 127l10 64l-186 -35q-78 -14 -117 -45q-37 -30 -37 -76z" />
    <glyph glyph-name="ccedilla" unicode="&#xe7;" horiz-adv-x="1239" 
d="M616 260l-12 -4q91 0 152 43t96 127h307q-43 -199 -168 -315q-130 -117 -319 -138l-60 -77q98 -9 160 -64q59 -56 59 -143q0 -117 -81 -189q-82 -73 -205 -73t-199 61t-76 158h209q3 -26 23 -37q18 -12 49 -12q33 0 55 22q23 23 23 55q0 28 -19 47t-51 19q-28 0 -43 -6
q-13 -5 -24 -23l-166 84l151 193q-187 37 -301 172q-113 131 -113 317q0 255 166 424q167 170 420 170q220 0 367 -129q149 -131 164 -328h-301q-21 78 -84 123q-65 47 -142 47q-126 0 -202 -79q-76 -76 -76 -209q0 -101 67 -168q68 -68 174 -68z" />
    <glyph glyph-name="egrave" unicode="&#xe8;" horiz-adv-x="1232" 
d="M606 223h-2q71 0 127 29q54 28 84 86h313q-61 -168 -204 -266q-144 -99 -332 -99q-235 0 -381 140q-145 139 -145 356q0 257 167 424q169 172 414 172q232 0 375 -137q145 -139 145 -353q0 -34 -2 -57q-5 -63 -8 -76h-799q12 -100 80 -159q72 -60 168 -60zM641 817v-2
q-85 0 -147 -45q-68 -46 -105 -123h485q-21 80 -81 125q-57 45 -152 45zM492 1161l-130 305h293l125 -305h-288z" />
    <glyph glyph-name="eacute" unicode="&#xe9;" horiz-adv-x="1232" 
d="M823 1163h-305l213 305h309zM606 223h-2q71 0 127 29q54 28 84 86h313q-61 -168 -204 -266q-144 -99 -332 -99q-235 0 -381 140q-145 139 -145 356q0 257 167 424q169 172 414 172q232 0 375 -137q145 -139 145 -353q0 -34 -2 -57q-5 -63 -8 -76h-799q12 -100 80 -159
q72 -60 168 -60zM641 817v-2q-85 0 -147 -45q-68 -46 -105 -123h485q-21 80 -81 125q-57 45 -152 45z" />
    <glyph glyph-name="ecircumflex" unicode="&#xea;" horiz-adv-x="1232" 
d="M287 1163l248 305h348l159 -305h-264l-86 158l-127 -158h-278zM606 223h-2q71 0 127 29q54 28 84 86h313q-61 -168 -204 -266q-144 -99 -332 -99q-235 0 -381 140q-145 139 -145 356q0 257 167 424q169 172 414 172q232 0 375 -137q145 -139 145 -353q0 -34 -2 -57
q-5 -63 -8 -76h-799q12 -100 80 -159q72 -60 168 -60zM641 817v-2q-85 0 -147 -45q-68 -46 -105 -123h485q-21 80 -81 125q-57 45 -152 45z" />
    <glyph glyph-name="edieresis" unicode="&#xeb;" horiz-adv-x="1232" 
d="M655 1311h-2q0 -65 -43 -111q-42 -45 -106 -45q-67 0 -109 45q-43 46 -43 111q0 64 43 110q42 45 109 45q66 0 108 -45q43 -46 43 -110zM1012 1311h-2q0 -65 -43 -111q-42 -45 -107 -45t-110 45t-45 111q0 65 45 110t110 45q67 0 109 -45q43 -46 43 -110zM602 223h-2
q71 0 127 29q54 28 84 86h313q-61 -168 -204 -266q-144 -99 -332 -99q-235 0 -381 140t-146 356q0 256 168 424q169 172 414 172q232 0 375 -137q145 -139 145 -353q0 -34 -2 -57q-5 -63 -8 -76h-799q12 -100 80 -159q72 -60 168 -60zM637 817v-2q-86 0 -148 -45
q-66 -45 -104 -123h485q-21 79 -82 125q-57 45 -151 45z" />
    <glyph glyph-name="igrave" unicode="&#xec;" horiz-adv-x="579" 
d="M371 0h-312l148 1042h311zM207 1163l-129 305h293l125 -305h-289z" />
    <glyph glyph-name="iacute" unicode="&#xed;" horiz-adv-x="579" 
d="M537 1163h-306l213 305h310zM371 0h-312l148 1042h311z" />
    <glyph glyph-name="icircumflex" unicode="&#xee;" horiz-adv-x="579" 
d="M0 1163l248 305h348l160 -305h-264l-86 158l-127 -158h-279zM371 0h-312l148 1042h311z" />
    <glyph glyph-name="idieresis" unicode="&#xef;" horiz-adv-x="579" 
d="M371 1311h-2q0 -65 -43 -111q-42 -45 -107 -45q-66 0 -108 45q-43 46 -43 111q0 64 43 110q42 45 108 45q67 0 109 -45q43 -46 43 -110zM727 1311h-2q0 -65 -43 -111q-42 -45 -107 -45t-110 45t-45 111q0 65 45 110t110 45q67 0 109 -45q43 -46 43 -110zM367 0h-312
l148 1042h311z" />
    <glyph glyph-name="eth" unicode="&#xf0;" horiz-adv-x="1273" 
d="M530 1118l17 170l135 43q-63 77 -82 96q-51 55 -90 91h332q23 -18 55 -50q8 -8 26.5 -28.5t30.5 -32.5l242 78l-25 -172l-118 -39q74 -122 116 -277q39 -142 39 -325q0 -297 -178 -496q-180 -201 -438 -201q-229 0 -381 146t-152 360q0 223 164 387q162 162 387 162
q77 0 148 -24q69 -24 123 -68q-11 59 -37 129q-23 62 -62 129zM367 489l-7 -2q0 -103 68 -168q63 -63 178 -63q118 0 195 80q78 84 78 194q0 103 -68 168q-64 64 -178 64t-191 -80q-75 -75 -75 -193z" />
    <glyph glyph-name="ntilde" unicode="&#xf1;" horiz-adv-x="1234" 
d="M369 0l-320 -2l148 1042h295l-17 -104q57 63 135 98q81 35 162 35q180 0 279 -123q97 -121 73 -303l-90 -645h-313l82 586q12 96 -27 147t-129 51q-76 0 -129 -47q-52 -46 -61 -123zM766 1405l-14 -4q27 -21 39 -27t22 -6q22 0 31 18q11 25 16 66h205q-9 -149 -64 -223
q-56 -74 -161 -74q-40 0 -70 12q-31 14 -76 50q-26 25 -39 30q-12 6 -26 6q-28 0 -39 -20q-13 -23 -19 -68h-206q9 152 67 228q57 75 170 75q40 0 78 -12q42 -12 86 -51z" />
    <glyph glyph-name="ograve" unicode="&#xf2;" horiz-adv-x="1265" 
d="M1200 565h-4q0 -253 -172 -422q-176 -170 -426 -170q-239 0 -387 142t-148 360q0 248 170 424q169 172 424 172q243 0 392 -143q151 -145 151 -363zM371 496v4q0 -101 67 -168q68 -68 174 -68q120 0 197 80q78 84 78 203q0 102 -68 170q-67 67 -168 67q-126 0 -202 -79
q-78 -84 -78 -209zM518 1167l-129 306h293l125 -306h-289z" />
    <glyph glyph-name="oacute" unicode="&#xf3;" horiz-adv-x="1265" 
d="M852 1163h-305l213 305h309zM1200 565h-4q0 -253 -172 -422q-176 -170 -426 -170q-239 0 -387 142t-148 360q0 248 170 424q169 172 424 172q243 0 392 -143q151 -145 151 -363zM371 496v4q0 -101 67 -168q68 -68 174 -68q120 0 197 80q78 84 78 203q0 102 -68 170
q-67 67 -168 67q-126 0 -202 -79q-78 -84 -78 -209z" />
    <glyph glyph-name="ocircumflex" unicode="&#xf4;" horiz-adv-x="1265" 
d="M317 1163l248 305h348l160 -305h-264l-86 158l-127 -158h-279zM1200 565h-4q0 -253 -172 -422q-176 -170 -426 -170q-239 0 -387 142t-148 360q0 248 170 424q169 172 424 172q243 0 392 -143q151 -145 151 -363zM371 496v4q0 -101 67 -168q68 -68 174 -68q120 0 197 80
q78 84 78 203q0 102 -68 170q-67 67 -168 67q-126 0 -202 -79q-78 -84 -78 -209z" />
    <glyph glyph-name="otilde" unicode="&#xf5;" horiz-adv-x="1265" 
d="M1200 565h-4q0 -253 -172 -422q-176 -170 -426 -170q-239 0 -387 142t-148 360q0 248 170 424q169 172 424 172q243 0 392 -143q151 -145 151 -363zM371 496v4q0 -101 67 -168q68 -68 174 -68q120 0 197 80q78 84 78 203q0 102 -68 170q-67 67 -168 67q-126 0 -202 -79
q-78 -84 -78 -209zM758 1411l-15 -4q27 -21 39 -27t23 -6q21 0 31 19q11 25 16 65h205q-9 -149 -64 -223q-56 -74 -162 -74q-37 0 -69 13q-34 15 -76 49q-26 25 -39 30q-14 7 -26 7q-27 0 -39 -21q-13 -23 -19 -68h-207q9 151 68 228q58 76 170 76q37 0 78 -13
q42 -12 86 -51z" />
    <glyph glyph-name="odieresis" unicode="&#xf6;" horiz-adv-x="1265" 
d="M686 1311h-2q0 -65 -43 -111q-42 -45 -106 -45q-67 0 -109 45q-43 46 -43 111q0 64 43 110q42 45 109 45q66 0 108 -45q43 -46 43 -110zM1042 1311h-2q0 -65 -43 -111q-42 -45 -106 -45q-66 0 -111 45t-45 111q0 65 45 110t111 45t108 -45q43 -46 43 -110zM1196 565h-4
q0 -253 -172 -422q-176 -170 -426 -170q-239 0 -387 142t-148 360q0 248 170 424q169 172 424 172q242 0 391 -143q152 -146 152 -363zM367 496v4q0 -101 67 -168q68 -68 174 -68q120 0 197 80q78 84 78 203q0 102 -68 170q-67 67 -168 67q-127 0 -203 -79q-77 -83 -77 -209
z" />
    <glyph glyph-name="divide" unicode="&#xf7;" 
d="M797 1141l-6 -4q0 -75 -54 -129q-52 -52 -133 -52q-75 0 -129 54q-53 53 -53 129t53 129t133 53q84 0 135 -51q54 -54 54 -129zM127 590v246h952v-246h-952zM791 287l-7 -4q0 -76 -53 -129q-52 -52 -133 -52q-75 0 -129 54q-53 53 -53 129t53 129t133 53q84 0 135 -51
q54 -54 54 -129z" />
    <glyph glyph-name="oslash" unicode="&#xf8;" horiz-adv-x="1265" 
d="M385 10l-59 -86h-263l142 191q-67 67 -105 159q-37 90 -37 195q0 248 170 424q169 172 424 172q50 0 115 -10q56 -9 107 -29l57 80h264l-143 -193q67 -67 106 -159q37 -87 37 -191q0 -253 -172 -422q-176 -170 -426 -170q-44 0 -115 11q-60 10 -102 28zM655 780l4 2
q-127 0 -206 -82q-80 -83 -80 -211q0 -25 10 -67q8 -32 25 -62l309 416q-28 4 -31 4h-31zM618 248v-4q120 0 201 84q80 83 80 209q0 40 -8 67q-8 32 -25 62l-309 -414q28 -4 31 -4h30z" />
    <glyph glyph-name="ugrave" unicode="&#xf9;" horiz-adv-x="1214" 
d="M846 1042l309 -2l-147 -1042h-293l14 100q-54 -60 -129 -94q-67 -33 -156 -33q-175 0 -270 121q-94 119 -70 301l91 645h313l-84 -587q-12 -91 27 -142q41 -53 122 -53q76 0 125 49q50 50 62 131zM510 1161l-129 305h293l125 -305h-289z" />
    <glyph glyph-name="uacute" unicode="&#xfa;" horiz-adv-x="1214" 
d="M844 1163h-305l213 305h309zM846 1042l309 -2l-147 -1042h-293l14 100q-54 -60 -129 -94q-67 -33 -156 -33q-175 0 -270 121q-94 119 -70 301l91 645h313l-84 -587q-12 -91 27 -142q41 -53 122 -53q76 0 125 49q50 50 62 131z" />
    <glyph glyph-name="ucircumflex" unicode="&#xfb;" horiz-adv-x="1214" 
d="M307 1163l248 305h348l160 -305h-264l-86 158l-127 -158h-279zM846 1042l309 -2l-147 -1042h-293l14 100q-54 -60 -129 -94q-67 -33 -156 -33q-175 0 -270 121q-94 119 -70 301l91 645h313l-84 -587q-12 -91 27 -142q41 -53 122 -53q76 0 125 49q50 50 62 131z" />
    <glyph glyph-name="udieresis" unicode="&#xfc;" horiz-adv-x="1214" 
d="M676 1311h-2q0 -65 -43 -111q-42 -45 -107 -45q-66 0 -108 45q-43 46 -43 111q0 64 43 110q42 45 108 45q67 0 109 -45q43 -46 43 -110zM1032 1311h-2q0 -65 -43 -111q-42 -45 -106 -45q-66 0 -111 45t-45 111q0 65 45 110t111 45t108 -45q43 -46 43 -110zM842 1042
l309 -2l-147 -1042h-293l14 100q-54 -60 -129 -94q-67 -33 -156 -33q-175 0 -270 121q-94 119 -70 301l90 645h314l-84 -587q-12 -92 26 -142q41 -53 123 -53q76 0 125 49q50 50 62 131z" />
    <glyph glyph-name="yacute" unicode="&#xfd;" horiz-adv-x="1142" 
d="M864 1042h328l-733 -1476h-322l203 416l-246 1060h322l133 -647zM813 1163h-305l213 305h309z" />
    <glyph glyph-name="thorn" unicode="&#xfe;" horiz-adv-x="1349" 
d="M1282 588l-2 -2q0 -269 -154 -443q-153 -172 -395 -172q-116 0 -201 43q-84 43 -141 127l-82 -577h-311l274 1952h312l-80 -578q61 61 143 98q73 33 168 33q211 0 340 -135t129 -346zM950 555l-2 -4q0 99 -67 166t-168 67q-124 0 -203 -82q-80 -83 -80 -208
q0 -107 68 -175q67 -67 178 -67q119 0 196 86q78 90 78 217z" />
    <glyph glyph-name="ydieresis" unicode="&#xff;" horiz-adv-x="1142" 
d="M864 1042h328l-733 -1476h-322l203 416l-246 1060h322l133 -647zM647 1311h-2q0 -65 -43 -111q-42 -45 -106 -45q-67 0 -109 45q-43 46 -43 111q0 64 43 110q42 45 109 45q66 0 108 -45q43 -46 43 -110zM1004 1311h-3q0 -65 -43 -111q-42 -45 -106 -45q-66 0 -111 45
t-45 111q0 65 45 110t111 45q67 0 109 -45q43 -46 43 -110z" />
    <glyph glyph-name="Amacron" unicode="&#x100;" horiz-adv-x="1439" 
d="M672 1440h348l313 -1440h-338l-49 258h-530l-123 -258h-344zM895 530l-100 527l-250 -527h350zM1159 1591h-594l29 209h594z" />
    <glyph glyph-name="amacron" unicode="&#x101;" horiz-adv-x="1126" 
d="M594 813l-6 -4q-57 0 -105 -31q-45 -29 -67 -90h-305q46 173 180 277q138 102 321 102q214 0 324 -125t80 -338l-90 -606h-293l14 102q-51 -63 -123 -98q-65 -33 -153 -33q-144 0 -236 80t-92 207q0 146 100 233q102 88 314 129l266 50q9 66 -25 106q-33 39 -104 39z
M346 299v2q0 -38 29 -61q30 -23 80 -23q81 0 145 64q68 65 80 149l4 27l-207 -41q-68 -15 -100 -43q-31 -28 -31 -74zM936 1196h-594l29 209h594z" />
    <glyph glyph-name="Abreve" unicode="&#x102;" horiz-adv-x="1439" 
d="M672 1440h348l313 -1440h-338l-49 258h-530l-123 -258h-344zM895 530l-100 527l-250 -527h350zM891 1538h4q-146 0 -246 92q-98 91 -98 228h227q0 -55 31 -91q30 -34 84 -34t84 34q31 36 31 91h227q0 -137 -98 -228q-100 -92 -246 -92z" />
    <glyph glyph-name="abreve" unicode="&#x103;" horiz-adv-x="1126" 
d="M594 813l-6 -4q-57 0 -105 -31q-45 -29 -67 -90h-305q46 173 180 277q138 102 321 102q214 0 324 -125t80 -338l-90 -606h-293l14 102q-51 -63 -123 -98q-65 -33 -153 -33q-144 0 -236 80t-92 207q0 146 100 233q102 88 314 129l266 50q9 66 -25 106q-33 39 -104 39z
M346 299v2q0 -38 29 -61q30 -23 80 -23q81 0 145 64q68 65 80 149l4 27l-207 -41q-68 -15 -100 -43q-31 -28 -31 -74zM653 1141h4q-145 0 -245 92q-99 91 -99 227h228q0 -56 30 -90q30 -35 84 -35t84 35q31 36 31 90h227q0 -136 -98 -227q-100 -92 -246 -92z" />
    <glyph glyph-name="Aogonek" unicode="&#x104;" horiz-adv-x="1439" 
d="M672 1440l344 -2l313 -1440h-104q-132 -123 -178 -184q-48 -67 -48 -105q0 -31 23 -51q21 -18 59 -18q21 0 45 6l50 16l-29 -201q-44 -19 -80 -26q-36 -8 -86 -8q-107 0 -174 55q-68 56 -68 151q0 77 47 154q46 75 209 213l-49 258h-530l-123 -258h-344zM891 528
l-100 527l-250 -527h350z" />
    <glyph glyph-name="aogonek" unicode="&#x105;" horiz-adv-x="1126" 
d="M594 813h-6q-57 0 -105 -31q-45 -29 -67 -90h-305q46 173 180 277q138 102 321 102q214 0 324 -125t80 -338l-90 -606h-60q-132 -123 -178 -184q-47 -65 -47 -105q0 -31 23 -51q21 -18 59 -18q21 0 45 6l49 16l-29 -201q-44 -19 -79 -26q-36 -8 -86 -8q-107 0 -174 55
q-68 56 -68 152q0 77 43 147q45 73 209 215l14 100q-51 -63 -123 -98q-65 -33 -153 -33q-144 0 -236 80t-92 207q0 146 100 233q102 88 314 129l266 50q9 66 -25 106q-33 39 -104 39zM346 303v2q0 -38 29 -61q30 -23 80 -23q81 0 145 64q68 65 80 149l4 27l-207 -41
q-68 -15 -100 -43q-31 -28 -31 -74z" />
    <glyph glyph-name="Cacute" unicode="&#x106;" horiz-adv-x="1652" 
d="M1253 600l349 -2q-67 -283 -283 -457q-214 -172 -504 -172q-317 0 -518 195q-199 193 -199 491q0 158 60 312q61 153 170 262q115 115 258 176q146 61 311 61q296 0 492 -166q197 -167 227 -432h-348q-35 133 -135 211q-103 80 -246 80q-187 0 -316 -141t-129 -342
q0 -178 107 -285q107 -110 282 -110q147 0 259 86q109 85 163 233zM1069 1556h-305l213 306h309z" />
    <glyph glyph-name="cacute" unicode="&#x107;" horiz-adv-x="1239" 
d="M834 1163h-306l213 305h310zM616 260l-6 2q91 0 152 43t96 127h307q-46 -217 -192 -338q-143 -119 -377 -119q-231 0 -381 144q-152 146 -152 358q0 255 166 424q167 170 420 170q220 0 367 -129q149 -131 164 -328h-301q-21 78 -84 123q-65 47 -142 47q-126 0 -202 -79
q-76 -76 -76 -209q0 -101 67 -168q68 -68 174 -68z" />
    <glyph glyph-name="Ccircumflex" unicode="&#x108;" horiz-adv-x="1652" 
d="M1253 600l349 -2q-67 -283 -283 -457q-214 -172 -504 -172q-317 0 -518 195q-199 193 -199 491q0 158 60 312q61 153 170 262q115 115 258 176q146 61 311 61q296 0 492 -166q197 -167 227 -432h-348q-35 133 -135 211q-103 80 -246 80q-187 0 -316 -141t-129 -342
q0 -178 107 -285q107 -110 282 -110q147 0 259 86q109 85 163 233zM541 1556l247 306h349l159 -306h-264l-86 158l-127 -158h-278z" />
    <glyph glyph-name="ccircumflex" unicode="&#x109;" horiz-adv-x="1239" 
d="M299 1163l248 305h348l160 -305h-264l-86 158l-127 -158h-279zM616 260l-6 2q91 0 152 43t96 127h307q-46 -217 -192 -338q-143 -119 -377 -119q-231 0 -381 144q-152 146 -152 358q0 255 166 424q167 170 420 170q220 0 367 -129q149 -131 164 -328h-301q-21 78 -84 123
q-65 47 -142 47q-126 0 -202 -79q-76 -76 -76 -209q0 -101 67 -168q68 -68 174 -68z" />
    <glyph glyph-name="Cdotaccent" unicode="&#x10a;" horiz-adv-x="1652" 
d="M1104 1716h-2q0 -70 -49 -119t-119 -49t-119 49t-49 119t49 119t119 49q72 0 121 -49t49 -119zM1251 600l348 -2q-67 -284 -282 -457q-214 -172 -504 -172q-317 0 -518 195q-199 193 -199 491q0 158 60 312q61 153 170 262q115 115 258 176q146 61 311 61q295 0 491 -166
q198 -168 228 -432h-348q-34 132 -136 211q-103 80 -245 80q-187 0 -316 -141t-129 -342q0 -178 107 -285q107 -110 282 -110q146 0 258 86q110 86 164 233z" />
    <glyph glyph-name="cdotaccent" unicode="&#x10b;" horiz-adv-x="1239" 
d="M616 260l-6 2q91 0 152 43t96 127h307q-46 -217 -192 -338q-143 -119 -377 -119q-231 0 -381 144q-152 146 -152 358q0 255 166 424q167 170 420 170q220 0 367 -129q149 -131 164 -328h-301q-21 78 -84 123q-65 47 -142 47q-126 0 -202 -79q-76 -76 -76 -209
q0 -101 67 -168q68 -68 174 -68zM852 1325h-2q0 -70 -49 -119t-119 -49t-119 49t-49 119t49 119t119 49q72 0 121 -49t49 -119z" />
    <glyph glyph-name="Ccaron" unicode="&#x10c;" horiz-adv-x="1652" 
d="M1253 600l349 -2q-67 -283 -283 -457q-214 -172 -504 -172q-317 0 -518 195q-199 193 -199 491q0 158 60 312q61 153 170 262q115 115 258 176q146 61 311 61q296 0 492 -166q197 -167 227 -432h-348q-35 133 -135 211q-103 80 -246 80q-187 0 -316 -141t-129 -342
q0 -178 107 -285q107 -110 282 -110q147 0 259 86q109 85 163 233zM1350 1862l-248 -306h-348l-160 306h264l86 -158l127 158h279z" />
    <glyph glyph-name="ccaron" unicode="&#x10d;" horiz-adv-x="1239" 
d="M1108 1468l-248 -305h-348l-160 305h264l86 -157l127 157h279zM616 260l-6 2q91 0 152 43t96 127h307q-46 -217 -192 -338q-143 -119 -377 -119q-231 0 -381 144q-152 146 -152 358q0 255 166 424q167 170 420 170q220 0 367 -129q149 -131 164 -328h-301q-21 78 -84 123
q-65 47 -142 47q-126 0 -202 -79q-76 -76 -76 -209q0 -101 67 -168q68 -68 174 -68z" />
    <glyph glyph-name="Dcaron" unicode="&#x10e;" horiz-adv-x="1562" 
d="M643 0l-563 -2l201 1440h550q290 0 484 -185t194 -462q0 -362 -239 -576q-241 -215 -627 -215zM565 1130l-116 -825h225q223 0 358 123t135 340q0 167 -106 264q-107 98 -285 98h-211zM1290 1862l-248 -306h-348l-159 306h264l86 -158l127 158h278z" />
    <glyph glyph-name="dcaron" unicode="&#x10f;" horiz-adv-x="1579" 
d="M1800 1278l-170 -283h-178l139 234q-45 18 -73 59q-27 40 -27 90q0 70 47 117t121 47q70 0 123 -47q49 -46 49 -117q0 -21 -6 -45q-6 -23 -25 -55zM1350 1518l-213 -1518h-295l16 121q-68 -71 -151 -109q-81 -37 -179 -37q-210 0 -340 136q-129 135 -129 346
q0 266 154 440q153 172 393 172q116 0 203 -43q83 -39 143 -127l86 619h312zM393 483q0 -99 68 -164q71 -65 170 -65q124 0 200 82q78 84 78 209q0 109 -67 176t-176 67q-120 0 -197 -86q-76 -82 -76 -219z" />
    <glyph glyph-name="Dcroat" unicode="&#x110;" horiz-adv-x="1617" 
d="M698 0l-563 -2l84 604h-172l29 221h174l86 615h551q289 0 483 -185q195 -186 195 -462q0 -361 -240 -576q-241 -215 -627 -215zM547 602l-43 -297h225q223 0 358 123q136 124 136 340q0 166 -107 264t-285 98h-210l-43 -307h303l-29 -221h-305z" />
    <glyph glyph-name="dcroat" unicode="&#x111;" horiz-adv-x="1345" 
d="M1307 1176l-166 -1176h-295l16 121q-68 -71 -151 -109q-81 -37 -179 -37q-209 0 -339 136t-130 346q0 266 154 440q153 172 393 172q116 0 203 -43q83 -39 143 -127l39 277h-368l28 217h371l16 125h312l-19 -125h144l-31 -217h-141zM397 483q0 -99 68 -164
q71 -65 170 -65q125 0 201 82q77 83 77 209q0 109 -67 176t-176 67q-120 0 -197 -86q-76 -82 -76 -219z" />
    <glyph glyph-name="Emacron" unicode="&#x112;" horiz-adv-x="1196" 
d="M1018 0h-938l203 1440h927l-41 -297h-602l-39 -273h553l-39 -280h-553l-40 -293h610zM1061 1591h-594l29 209h594z" />
    <glyph glyph-name="emacron" unicode="&#x113;" horiz-adv-x="1232" 
d="M606 223h-2q71 0 127 29q54 28 84 86h313q-61 -168 -204 -266q-144 -99 -332 -99q-235 0 -381 140q-145 139 -145 356q0 257 167 424q169 172 414 172q232 0 375 -137q145 -139 145 -353q0 -34 -2 -57q-5 -63 -8 -76h-799q12 -100 80 -159q72 -60 168 -60zM641 817v-2
q-85 0 -147 -45q-68 -46 -105 -123h485q-21 80 -81 125q-57 45 -152 45zM965 1196h-594l28 209h594z" />
    <glyph glyph-name="Ebreve" unicode="&#x114;" horiz-adv-x="1196" 
d="M1018 0h-938l203 1440h927l-41 -297h-602l-39 -273h553l-39 -280h-553l-40 -293h610zM793 1538h4q-146 0 -246 92q-98 91 -98 228h227q0 -55 31 -91q30 -34 84 -34t84 34q30 35 30 91h228q0 -136 -99 -228q-100 -92 -245 -92z" />
    <glyph glyph-name="ebreve" unicode="&#x115;" horiz-adv-x="1232" 
d="M606 223h-2q71 0 127 29q54 28 84 86h313q-61 -168 -204 -266q-144 -99 -332 -99q-235 0 -381 140q-145 139 -145 356q0 257 167 424q169 172 414 172q232 0 375 -137q145 -139 145 -353q0 -34 -2 -57q-5 -63 -8 -76h-799q12 -100 80 -159q72 -60 168 -60zM641 817v-2
q-85 0 -147 -45q-68 -46 -105 -123h485q-21 80 -81 125q-57 45 -152 45zM684 1141h4q-146 0 -246 92q-98 91 -98 227h227q0 -54 31 -90q30 -35 84 -35t84 35q31 36 31 90h227q0 -136 -98 -227q-100 -92 -246 -92z" />
    <glyph glyph-name="Edotaccent" unicode="&#x116;" horiz-adv-x="1196" 
d="M948 1716h-2q0 -70 -49 -119t-119 -49t-119 49t-49 119t49 119t119 49q72 0 121 -49t49 -119zM1016 0h-938l203 1440h927l-41 -297h-602l-39 -273h553l-39 -280h-553l-41 -293h611z" />
    <glyph glyph-name="edotaccent" unicode="&#x117;" horiz-adv-x="1232" 
d="M606 223h-2q71 0 127 29q54 28 84 86h313q-61 -168 -204 -266q-144 -99 -332 -99q-235 0 -381 140q-145 139 -145 356q0 257 167 424q169 172 414 172q232 0 375 -137q145 -139 145 -353q0 -34 -2 -57q-5 -63 -8 -76h-799q12 -100 80 -159q72 -60 168 -60zM641 817v-2
q-85 0 -147 -45q-68 -46 -105 -123h485q-21 80 -81 125q-57 45 -152 45zM844 1321h-2q0 -70 -49 -119t-119 -49t-119 49t-49 119t49 119t119 49q72 0 121 -49t49 -119z" />
    <glyph glyph-name="Eogonek" unicode="&#x118;" horiz-adv-x="1196" 
d="M741 0h-665l203 1440h927l-41 -297h-602l-39 -273h553l-39 -280h-553l-41 -293h611l-41 -297h-41q-132 -123 -178 -184q-47 -65 -47 -105q0 -32 22 -51q21 -18 59 -18q21 0 45 6l50 16l-29 -201q-44 -19 -80 -26q-36 -8 -86 -8q-107 0 -174 55q-68 56 -68 151
q0 75 48 154q44 71 206 211z" />
    <glyph glyph-name="eogonek" unicode="&#x119;" horiz-adv-x="1232" 
d="M815 338l313 -4q-37 -94 -98 -164q-60 -68 -209 -182q-89 -68 -135 -138q-45 -68 -45 -141q0 -31 23 -51q21 -18 61 -18q21 0 45 6q25 6 47 18l-26 -203q-41 -21 -80 -30q-34 -9 -82 -9q-106 0 -174 56t-68 149q0 84 43 160q48 82 154 182h-17q-220 0 -362 142t-142 358
q0 256 168 424q169 172 414 172q232 0 375 -137q145 -139 145 -353q0 -34 -2 -57q-5 -63 -8 -76h-799q12 -100 80 -159q72 -60 168 -60q71 0 127 29q54 28 84 86zM643 813v-2q-85 0 -147 -45q-68 -46 -105 -123h486q-21 79 -82 125q-57 45 -152 45z" />
    <glyph glyph-name="Ecaron" unicode="&#x11a;" horiz-adv-x="1196" 
d="M1018 0h-938l203 1440h927l-41 -297h-602l-39 -273h553l-39 -280h-553l-40 -293h610zM1196 1864l-248 -305h-348l-160 305h265l86 -158l127 158h278z" />
    <glyph glyph-name="ecaron" unicode="&#x11b;" horiz-adv-x="1232" 
d="M1098 1468l-248 -305h-348l-160 305h264l86 -157l127 157h279zM606 223h-2q71 0 127 29q54 28 84 86h313q-61 -168 -204 -266q-144 -99 -332 -99q-235 0 -381 140q-145 139 -145 356q0 257 167 424q169 172 414 172q232 0 375 -137q145 -139 145 -353q0 -34 -2 -57
q-5 -63 -8 -76h-799q12 -100 80 -159q72 -60 168 -60zM641 817v-2q-85 0 -147 -45q-68 -46 -105 -123h485q-21 80 -81 125q-57 45 -152 45z" />
    <glyph glyph-name="Gcircumflex" unicode="&#x11c;" horiz-adv-x="1654" 
d="M535 1559l247 305h348l160 -305h-264l-86 157l-127 -157h-278zM1577 760l-104 -758h-273l25 166q-81 -93 -193 -143t-246 -50q-303 0 -493 193q-191 194 -191 487q0 341 228 578q226 235 565 235q277 0 467 -147q189 -146 227 -387h-356q-40 107 -129 166t-221 59
q-188 0 -316 -143q-129 -144 -129 -346q0 -187 111 -295q107 -107 309 -107q125 0 225 62q99 62 152 176h-408l35 254h715z" />
    <glyph glyph-name="gcircumflex" unicode="&#x11d;" horiz-adv-x="1290" 
d="M311 1163l248 305h348l160 -305h-264l-86 158l-127 -158h-279zM4 -47l295 -2q3 -75 66 -117q61 -43 165 -43q96 0 160 55t76 148l22 162q-63 -57 -129 -82q-67 -27 -153 -27q-192 0 -313 127t-121 320q0 244 145 409q144 164 363 164q113 0 198 -43q84 -41 137 -127
l21 145h295l-146 -1034q-30 -220 -174 -346q-143 -125 -370 -125q-233 0 -383 117q-151 118 -154 299zM608 315l-2 -2q108 0 176 74t68 184q0 95 -62 154q-65 59 -161 59q-103 0 -170 -73q-68 -74 -68 -185q0 -94 62 -153q58 -58 157 -58z" />
    <glyph glyph-name="Gbreve" unicode="&#x11e;" horiz-adv-x="1654" 
d="M1577 760l-104 -758h-273l25 166q-81 -93 -193 -143t-246 -50q-303 0 -493 193q-191 194 -191 487q0 341 228 578q226 235 565 235q277 0 467 -147q189 -146 227 -387h-356q-40 107 -129 166t-221 59q-188 0 -316 -143q-129 -144 -129 -346q0 -187 111 -295
q107 -107 309 -107q125 0 225 62q99 62 152 176h-408l35 254h715zM944 1540h4q-146 0 -246 92q-98 91 -98 228h227q0 -55 31 -91q30 -34 84 -34t84 34q31 36 31 91h227q0 -137 -98 -228q-100 -92 -246 -92z" />
    <glyph glyph-name="gbreve" unicode="&#x11f;" horiz-adv-x="1290" 
d="M4 -47l295 -2q3 -75 66 -117q61 -43 165 -43q96 0 160 55t76 148l22 162q-63 -57 -129 -82q-67 -27 -153 -27q-192 0 -313 127t-121 320q0 244 145 409q144 164 363 164q113 0 198 -43q84 -41 137 -127l21 145h295l-146 -1034q-30 -220 -174 -346q-143 -125 -370 -125
q-233 0 -383 117q-151 118 -154 299zM608 315l-2 -2q108 0 176 74t68 184q0 95 -62 154q-65 59 -161 59q-103 0 -170 -73q-68 -74 -68 -185q0 -94 62 -153q58 -58 157 -58zM698 1139h4q-145 0 -245 92q-99 91 -99 227h228q0 -56 30 -90q30 -35 84 -35t84 35q31 36 31 90h227
q0 -136 -98 -227q-100 -92 -246 -92z" />
    <glyph glyph-name="Gdotaccent" unicode="&#x120;" horiz-adv-x="1654" 
d="M1096 1716h-2q0 -69 -50 -119q-49 -49 -118 -49q-70 0 -119 49t-49 119t49 119t119 49q72 0 121 -49t49 -119zM1575 760l-105 -758h-272l25 166q-81 -93 -193 -143t-246 -50q-303 0 -493 193q-191 194 -191 487q0 341 228 578q226 235 565 235q277 0 467 -147
q189 -146 227 -387h-356q-40 107 -129 166t-221 59q-188 0 -316 -143q-129 -144 -129 -346q0 -187 111 -295q107 -107 309 -107q125 0 225 62q99 62 152 176h-408l35 254h715z" />
    <glyph glyph-name="gdotaccent" unicode="&#x121;" horiz-adv-x="1290" 
d="M4 -47l295 -2q3 -75 66 -117q61 -43 165 -43q96 0 160 55t76 148l22 162q-63 -57 -129 -82q-67 -27 -153 -27q-192 0 -313 127t-121 320q0 244 145 409q144 164 363 164q113 0 198 -43q84 -41 137 -127l21 145h295l-146 -1034q-30 -220 -174 -346q-143 -125 -370 -125
q-233 0 -383 117q-151 118 -154 299zM608 315l-2 -2q108 0 176 74t68 184q0 95 -62 154q-65 59 -161 59q-103 0 -170 -73q-68 -74 -68 -185q0 -94 62 -153q58 -58 157 -58zM858 1319h-2q0 -70 -49 -119t-119 -49t-119 49t-49 119t49 119t119 49q72 0 121 -49t49 -119z" />
    <glyph glyph-name="uni0122" unicode="&#x122;" horiz-adv-x="1654" 
d="M881 -360l-111 -232h-160l90 182q-47 15 -73 54q-27 34 -27 84q0 63 43 106t109 43q67 0 110 -43t43 -106q0 -22 -6 -43zM1581 762l-104 -758h-273l25 166q-81 -93 -193 -143t-245 -50q-304 0 -494 193q-191 194 -191 487q0 341 228 578q226 235 565 235q277 0 467 -147
q189 -146 227 -387h-356q-40 107 -129 166t-221 59q-188 0 -316 -143q-129 -144 -129 -346q0 -187 111 -295q107 -107 309 -107q125 0 225 62q99 62 152 176h-408l35 254h715z" />
    <glyph glyph-name="uni0123" unicode="&#x123;" horiz-adv-x="1290" 
d="M582 1407l135 219h162l-119 -186q40 -15 63 -51q25 -39 25 -80q0 -66 -43 -109t-109 -43q-67 0 -110 43t-43 109q0 27 8 43q6 14 31 55zM0 -45l295 -2q3 -75 65 -117q61 -43 166 -43q96 0 160 55t76 148l22 162q-63 -57 -129 -82q-67 -27 -153 -27q-193 0 -314 127
q-120 126 -120 320q0 244 145 409q144 164 362 164q114 0 199 -43q84 -41 137 -127l21 145h295l-146 -1034q-30 -220 -174 -346q-143 -125 -370 -125q-233 0 -383 117q-151 118 -154 299zM604 317l-2 -2q108 0 176 74t68 184q0 95 -62 154q-65 59 -161 59q-103 0 -170 -73
q-68 -74 -68 -185q0 -95 61 -153q58 -58 158 -58z" />
    <glyph glyph-name="Hcircumflex" unicode="&#x124;" horiz-adv-x="1466" 
d="M406 0h-326l203 1440h325l-76 -553h500l76 553h326l-203 -1440h-324l80 580h-500zM498 1559l247 305h349l159 -305h-264l-86 157l-127 -157h-278z" />
    <glyph glyph-name="hcircumflex" unicode="&#x125;" horiz-adv-x="1234" 
d="M68 1638l247 306h349l159 -306h-264l-86 158l-127 -158h-278zM371 0h-320l213 1518h311l-77 -557q58 52 129 79q79 29 147 29q180 0 279 -123q97 -121 73 -303l-90 -645h-313l82 586q12 96 -27 147t-129 51q-76 0 -129 -47q-52 -46 -61 -114z" />
    <glyph glyph-name="Hbar" unicode="&#x126;" horiz-adv-x="1568" 
d="M457 0h-326l145 1030h-161l30 219h162l27 191h325l-26 -191h500l26 191h326l-27 -191h162l-31 -219h-162l-145 -1030h-324l80 580h-499zM604 1030l-20 -143h499l21 143h-500z" />
    <glyph glyph-name="hbar" unicode="&#x127;" horiz-adv-x="1234" 
d="M371 0h-320l166 1176h-143l30 217h142l18 125h311l-18 -125h371l-31 -217h-369l-30 -215q58 52 129 79q79 29 147 29q180 0 279 -123q97 -121 73 -303l-90 -645h-313l82 586q15 95 -25 147q-39 51 -129 51q-70 0 -129 -47q-55 -48 -63 -114z" />
    <glyph glyph-name="Itilde" unicode="&#x128;" horiz-adv-x="641" 
d="M406 0h-326l203 1440h325zM516 1800l-14 -4q27 -21 39 -27t22 -6q21 0 31 19q11 25 16 65h205q-9 -151 -63 -223q-56 -74 -162 -74q-38 0 -70 13q-34 15 -76 49q-26 26 -38 30q-14 7 -27 7q-27 0 -39 -21t-18 -67h-207q9 151 67 227t170 76q37 0 78 -13q42 -12 86 -51z
" />
    <glyph glyph-name="itilde" unicode="&#x129;" horiz-adv-x="579" 
d="M371 0h-312l148 1042h311zM446 1407l-14 -4q27 -21 39 -27t23 -6q20 0 30 19q12 29 17 65h204q-9 -151 -63 -223q-56 -74 -162 -74q-39 0 -69 12q-31 14 -76 50q-26 25 -39 30q-12 6 -27 6q-28 0 -39 -20q-12 -21 -18 -68h-207q9 151 68 228q57 75 170 75q39 0 77 -12
q42 -12 86 -51z" />
    <glyph glyph-name="Imacron" unicode="&#x12a;" horiz-adv-x="641" 
d="M406 0h-326l203 1440h325zM760 1591h-594l29 209h593z" />
    <glyph glyph-name="imacron" unicode="&#x12b;" horiz-adv-x="579" 
d="M371 0h-312l148 1042h311zM682 1198h-594l29 209h594z" />
    <glyph glyph-name="Iogonek" unicode="&#x12e;" horiz-adv-x="641" 
d="M260 -334l-29 -196q-49 -21 -79 -27q-36 -8 -86 -8q-108 0 -175 55t-67 152q0 77 43 147q45 73 209 215l203 1438h325l-203 -1440h-92q-132 -123 -178 -184q-47 -65 -47 -105q0 -32 22 -51q21 -18 60 -18q21 0 45 6z" />
    <glyph glyph-name="iogonek" unicode="&#x12f;" horiz-adv-x="579" 
d="M211 1343v-4q0 83 53 136q51 51 142 51q88 0 139 -51q53 -53 53 -136q0 -78 -53 -131q-51 -51 -139 -51q-89 0 -142 53t-53 133zM240 -338l-29 -197q-44 -19 -80 -26q-36 -8 -86 -8q-107 0 -174 55q-68 56 -68 152q0 77 43 147q45 73 209 215l148 1040h311l-147 -1042
h-78q-132 -123 -178 -184q-48 -67 -48 -105q0 -31 23 -51q21 -18 59 -18q21 0 45 6z" />
    <glyph glyph-name="Idotaccent" unicode="&#x130;" horiz-adv-x="641" 
d="M406 0h-326l203 1440h325zM645 1716h-2q0 -70 -49 -119t-119 -49t-119 49t-49 119t49 119t119 49q72 0 121 -49t49 -119z" />
    <glyph glyph-name="dotlessi" unicode="&#x131;" horiz-adv-x="579" 
d="M371 0h-312l148 1042h311z" />
    <glyph glyph-name="IJ" unicode="&#x132;" horiz-adv-x="1839" 
d="M406 0h-326l203 1440h325zM1493 1440h330l-140 -987q-30 -221 -178 -351q-147 -129 -364 -129q-225 0 -365 146q-138 144 -123 373h322q-3 -102 43 -160t135 -58q86 0 139 56q54 57 68 155z" />
    <glyph glyph-name="ij" unicode="&#x133;" horiz-adv-x="1173" 
d="M211 1343v-4q0 83 53 136q51 51 142 51q88 0 139 -51q53 -53 53 -136q0 -78 -53 -131q-51 -51 -139 -51q-89 0 -142 53t-53 133zM371 -4h-312l148 1042h311zM1180 1348l-4 4q0 -77 -52 -129t-131 -52t-131 52q-51 51 -51 129q0 79 51 127q52 49 131 49q82 0 133 -51
q54 -54 54 -129zM643 -49l148 1089h313l-156 -1114q-27 -203 -127 -295q-104 -96 -276 -96q-44 0 -88 6q-47 6 -68 15l37 270l39 -6q14 -2 37 -2q64 0 98 30q34 29 43 103z" />
    <glyph glyph-name="Jcircumflex" unicode="&#x134;" horiz-adv-x="1198" 
d="M852 1440h330l-140 -987q-30 -221 -178 -351q-147 -129 -364 -129q-225 0 -365 146q-138 144 -123 373h322q-3 -102 43 -160t135 -58q86 0 139 56q54 57 68 155zM659 1559l248 305h348l160 -305h-264l-86 157l-127 -157h-279z" />
    <glyph glyph-name="jcircumflex" unicode="&#x135;" horiz-adv-x="595" 
d="M18 1163l248 305h348l160 -305h-264l-86 158l-127 -158h-279zM70 -49l147 1089h313l-155 -1114q-27 -203 -127 -295q-104 -96 -277 -96q-45 0 -88 6q-46 6 -67 15l37 270l38 -6q14 -2 37 -2q64 0 99 30q34 29 43 103z" />
    <glyph glyph-name="uni0136" unicode="&#x136;" horiz-adv-x="1341" 
d="M719 -360l-111 -232h-159l90 182q-48 16 -74 54q-27 34 -27 84q0 63 43 106t109 43q67 0 110 -43t43 -106q0 -22 -6 -43zM287 1442h325l-82 -594l539 594h406l-644 -694l445 -746h-385l-387 668l-94 -668h-326z" />
    <glyph glyph-name="uni0137" unicode="&#x137;" horiz-adv-x="1128" 
d="M633 -360l-111 -232h-160l91 182q-48 16 -74 54q-27 34 -27 84q0 63 43 106t109 43q67 0 110 -43t43 -106q0 -22 -6 -43zM375 2h-312l213 1518h312l-125 -891l348 415h360l-413 -479l315 -563h-354l-275 492z" />
    <glyph glyph-name="kgreenlandic" unicode="&#x138;" horiz-adv-x="1126" 
d="M369 0h-312l148 1042h311l-59 -417l350 417h358l-411 -479l315 -563h-356l-275 494z" />
    <glyph glyph-name="Lacute" unicode="&#x139;" horiz-adv-x="1081" 
d="M612 1559h-305l213 305h309zM979 0h-899l203 1440h325l-159 -1143h571z" />
    <glyph glyph-name="lacute" unicode="&#x13a;" horiz-adv-x="581" 
d="M606 1638h-305l213 306h309zM274 1518h312l-213 -1518h-312z" />
    <glyph glyph-name="uni013B" unicode="&#x13b;" horiz-adv-x="1081" 
d="M618 -360l-110 -232h-160l90 182q-47 15 -73 54q-27 34 -27 84q0 63 43 106t108 43q68 0 111 -43t43 -106q0 -22 -6 -43zM983 2h-899l203 1440h325l-159 -1143h571z" />
    <glyph glyph-name="uni013C" unicode="&#x13c;" horiz-adv-x="581" 
d="M307 -360l-110 -232h-160l90 182q-48 16 -74 54q-26 33 -26 84q0 63 43 106t108 43q68 0 111 -43t43 -106q0 -22 -6 -43zM279 1520h311l-213 -1518h-311z" />
    <glyph glyph-name="Lcaron" unicode="&#x13d;" horiz-adv-x="1105" 
d="M1065 1278l-170 -283h-178l139 234q-47 18 -74 59q-26 39 -26 90q0 70 47 117t121 47q70 0 123 -47q49 -46 49 -117q0 -21 -6 -45q-6 -23 -25 -55zM975 0h-899l203 1440h325l-160 -1143h572z" />
    <glyph glyph-name="lcaron" unicode="&#x13e;" horiz-adv-x="813" 
d="M1034 1278l-170 -283h-178l139 234q-45 18 -73 59q-27 40 -27 90q0 70 47 117t121 47q70 0 123 -47q49 -46 49 -117q0 -21 -6 -45q-6 -23 -25 -55zM270 1518h312l-213 -1518h-312z" />
    <glyph glyph-name="Ldot" unicode="&#x13f;" horiz-adv-x="1116" 
d="M979 0h-899l203 1440h325l-159 -1143h571zM1090 719q0 -81 -60 -141q-58 -58 -147 -58q-90 0 -148 58q-57 57 -57 141q0 90 57 147q58 58 148 58q89 0 147 -58q60 -60 60 -147z" />
    <glyph glyph-name="ldot" unicode="&#x140;" horiz-adv-x="968" 
d="M274 1518h312l-213 -1518h-312zM1008 719q0 -81 -60 -141q-58 -58 -147 -58q-90 0 -148 58q-57 57 -57 141q0 90 57 147q58 58 148 58q89 0 147 -58q60 -60 60 -147z" />
    <glyph glyph-name="Lslash" unicode="&#x141;" horiz-adv-x="1169" 
d="M1067 0h-899l68 477l-189 -90l33 250l190 92l101 711h325l-75 -541l286 139l-33 -252l-288 -139l-49 -350h571z" />
    <glyph glyph-name="lslash" unicode="&#x142;" horiz-adv-x="804" 
d="M502 0h-312l86 610l-202 -102l8 250l231 119l90 641h312l-66 -471l201 102l-8 -250l-230 -117z" />
    <glyph glyph-name="Nacute" unicode="&#x143;" horiz-adv-x="1480" 
d="M1034 1559h-305l213 305h309zM387 0h-307l203 1440h307l424 -905l127 905h307l-203 -1440h-311l-420 899z" />
    <glyph glyph-name="nacute" unicode="&#x144;" horiz-adv-x="1234" 
d="M864 1163h-305l213 305h309zM369 0l-320 -2l148 1042h295l-17 -104q57 63 135 98q81 35 162 35q180 0 279 -123q97 -121 73 -303l-90 -645h-313l82 586q12 96 -27 147t-129 51q-76 0 -129 -47q-52 -46 -61 -123z" />
    <glyph glyph-name="uni0145" unicode="&#x145;" horiz-adv-x="1480" 
d="M748 -360l-111 -232h-160l90 182q-47 15 -73 54q-27 34 -27 84q0 63 43 106t108 43q68 0 111 -43t43 -106q0 -22 -6 -43zM391 2h-307l203 1440h307l424 -905l127 905h307l-203 -1440h-311l-420 899z" />
    <glyph glyph-name="uni0146" unicode="&#x146;" horiz-adv-x="1234" 
d="M647 -360l-110 -232h-160l90 182q-48 16 -74 54q-26 33 -26 84q0 63 43 106t108 43q68 0 111 -43t43 -106q0 -22 -6 -43zM373 2l-320 -2l148 1042h295l-17 -104q57 63 135 98q81 35 162 35q180 0 279 -123q97 -121 73 -303l-90 -645h-313l82 586q12 96 -27 147t-129 51
q-76 0 -129 -47q-52 -46 -61 -123z" />
    <glyph glyph-name="Ncaron" unicode="&#x147;" horiz-adv-x="1480" 
d="M387 0h-307l203 1440h307l424 -905l127 905h307l-203 -1440h-311l-420 899zM1315 1864l-248 -305h-348l-160 305h264l86 -158l127 158h279z" />
    <glyph glyph-name="ncaron" unicode="&#x148;" horiz-adv-x="1234" 
d="M1139 1468l-248 -305h-348l-160 305h264l86 -157l127 157h279zM369 0l-320 -2l148 1042h295l-17 -104q57 63 135 98q81 35 162 35q180 0 279 -123q97 -121 73 -303l-90 -645h-313l82 586q12 96 -27 147t-129 51q-76 0 -129 -47q-52 -46 -61 -123z" />
    <glyph glyph-name="napostrophe" unicode="&#x149;" horiz-adv-x="1234" 
d="M305 1389l-110 -232h-160l90 182q-48 16 -74 54q-26 33 -26 84q0 63 43 106t108 43q68 0 111 -43t43 -106q0 -22 -6 -43zM373 2l-320 -2l148 1042h295l-17 -104q57 63 135 98q81 35 162 35q180 0 279 -123q97 -121 73 -303l-90 -645h-313l82 586q12 96 -27 147t-129 51
q-76 0 -129 -47q-52 -46 -61 -123z" />
    <glyph glyph-name="Omacron" unicode="&#x14c;" horiz-adv-x="1689" 
d="M334 1235l-6 2q112 109 260 172q146 61 313 61q321 0 526 -190q207 -192 207 -498q0 -165 -61 -311q-62 -148 -174 -260t-260 -174t-312 -62q-319 0 -526 195q-203 194 -203 492q0 163 62 311q66 154 174 262zM432 676v4q0 -174 111 -285q110 -110 293 -110
q194 0 325 137t131 340q0 176 -110 289q-109 112 -293 112q-194 0 -326 -141q-131 -137 -131 -346zM1237 1597h-594l29 209h594z" />
    <glyph glyph-name="omacron" unicode="&#x14d;" horiz-adv-x="1265" 
d="M997 1198h-594l29 209h594zM1200 565h-4q0 -253 -172 -422q-176 -170 -426 -170q-239 0 -387 142t-148 360q0 248 170 424q169 172 424 172q243 0 392 -143q151 -145 151 -363zM371 496v4q0 -101 67 -168q68 -68 174 -68q120 0 197 80q78 84 78 203q0 102 -68 170
q-67 67 -168 67q-126 0 -202 -79q-78 -84 -78 -209z" />
    <glyph glyph-name="Obreve" unicode="&#x14e;" horiz-adv-x="1689" 
d="M334 1235l-6 2q112 109 260 172q146 61 313 61q321 0 526 -190q207 -192 207 -498q0 -165 -61 -311q-62 -148 -174 -260t-260 -174t-312 -62q-319 0 -526 195q-203 194 -203 492q0 163 62 311q66 154 174 262zM432 676v4q0 -174 111 -285q110 -110 293 -110
q194 0 325 137t131 340q0 176 -110 289q-109 112 -293 112q-194 0 -326 -141q-131 -137 -131 -346zM971 1544h4q-146 0 -246 92q-98 91 -98 228h227q0 -54 31 -90q30 -35 84 -35t84 35q30 34 30 90h228q0 -137 -98 -228q-100 -92 -246 -92z" />
    <glyph glyph-name="obreve" unicode="&#x14f;" horiz-adv-x="1265" 
d="M1200 565h-4q0 -253 -172 -422q-176 -170 -426 -170q-239 0 -387 142t-148 360q0 248 170 424q169 172 424 172q243 0 392 -143q151 -145 151 -363zM371 496v4q0 -101 67 -168q68 -68 174 -68q120 0 197 80q78 84 78 203q0 102 -68 170q-67 67 -168 67q-126 0 -202 -79
q-78 -84 -78 -209zM713 1147h4q-146 0 -246 92q-98 91 -98 227h227q0 -54 31 -90q30 -35 84 -35t84 35q30 34 30 90h228q0 -136 -99 -227q-100 -92 -245 -92z" />
    <glyph glyph-name="Ohungarumlaut" unicode="&#x150;" horiz-adv-x="1689" 
d="M762 1864h293l-183 -305h-288zM1124 1864h293l-184 -305h-289zM334 1235l-6 2q112 109 260 172q146 61 313 61q321 0 526 -190q207 -192 207 -498q0 -165 -61 -311q-62 -148 -174 -260t-260 -174t-312 -62q-319 0 -526 195q-203 194 -203 492q0 163 62 311
q66 154 174 262zM432 676v4q0 -174 111 -285q110 -110 293 -110q194 0 325 137t131 340q0 176 -110 289q-109 112 -293 112q-194 0 -326 -141q-131 -137 -131 -346z" />
    <glyph glyph-name="ohungarumlaut" unicode="&#x151;" horiz-adv-x="1265" 
d="M549 1468h293l-183 -305h-288zM911 1468h293l-184 -305h-289zM1200 565h-4q0 -253 -172 -422q-176 -170 -426 -170q-239 0 -387 142t-148 360q0 248 170 424q169 172 424 172q243 0 392 -143q151 -145 151 -363zM371 496v4q0 -101 67 -168q68 -68 174 -68q120 0 197 80
q78 84 78 203q0 102 -68 170q-67 67 -168 67q-126 0 -202 -79q-78 -84 -78 -209z" />
    <glyph glyph-name="OE" unicode="&#x152;" horiz-adv-x="2312" 
d="M2132 0l-942 4l12 90q-85 -58 -190 -88q-105 -31 -209 -31q-307 0 -506 199q-203 200 -203 492q0 150 60 301q60 148 170 258q113 113 258 178q138 63 301 63q145 0 270 -49q127 -50 221 -141l23 164h927l-40 -297h-603l-39 -273h553l-38 -280h-553l-41 -293h610z
M432 678v4q0 -174 111 -285q110 -110 293 -110q192 0 325 139q131 137 131 338q0 176 -110 289q-109 112 -293 112q-194 0 -326 -141q-131 -137 -131 -346z" />
    <glyph glyph-name="oe" unicode="&#x153;" horiz-adv-x="2076" 
d="M1030 180l-8 -2q-77 -99 -197 -153q-123 -54 -252 -54q-225 0 -370 142q-144 141 -144 360q0 250 166 422t408 172q139 0 252 -55q115 -56 184 -156q76 101 186 156t238 55q236 0 373 -137q141 -138 141 -352q0 -45 -2 -68q-5 -56 -8 -70h-803q12 -100 80 -159
q72 -60 170 -60q71 0 127 29q51 26 86 86h311q-61 -164 -203 -264q-141 -99 -323 -99q-126 0 -240 54q-109 53 -172 153zM1481 815h-2q-86 0 -148 -45q-65 -45 -106 -125h489q-21 79 -82 125q-57 45 -151 45zM365 494l2 4q0 -101 67 -168q68 -68 174 -68q120 0 197 80
q78 84 78 203q0 98 -66 170q-64 67 -164 67q-129 0 -209 -80q-79 -79 -79 -208z" />
    <glyph glyph-name="Racute" unicode="&#x154;" horiz-adv-x="1388" 
d="M408 0l-328 -2l201 1440h567q215 0 352 -119q141 -120 141 -303t-110 -305q-111 -123 -303 -166l352 -545h-379l-326 524h-96zM795 1155l-232 -4l-51 -369h236q114 0 182 56q67 55 67 149q0 75 -55 121q-59 47 -147 47zM934 1552h-305l213 306h309z" />
    <glyph glyph-name="racute" unicode="&#x155;" horiz-adv-x="821" 
d="M711 1163h-305l212 305h310zM205 1042l291 -2l-19 -125q60 72 135 109t166 37q25 0 39 -2l43 -6l-43 -291q-12 3 -23.5 4.5t-22.5 2t-15 1.5q-14 2 -37 2q-114 0 -184 -67q-74 -74 -91 -187l-75 -518h-312z" />
    <glyph glyph-name="uni0156" unicode="&#x156;" horiz-adv-x="1388" 
d="M733 -360l-110 -232h-160l90 182q-48 16 -74 54q-26 33 -26 84q0 63 43 106t108 43q68 0 111 -43t43 -106q0 -22 -6 -43zM412 2l-328 -2l201 1440h567q215 0 352 -119q142 -121 142 -303t-111 -305t-303 -166l352 -545h-379l-325 524h-97zM799 1157l-232 -4l-51 -369h236
q114 0 182 56q67 55 67 149q0 75 -55 121q-59 47 -147 47z" />
    <glyph glyph-name="uni0157" unicode="&#x157;" horiz-adv-x="821" 
d="M303 -360l-110 -232h-160l90 182q-48 16 -74 54q-26 33 -26 84q0 63 43 106t108 43q68 0 111 -43t43 -106q0 -22 -6 -43zM209 1044l291 -2l-19 -124q59 70 135 108q75 37 166 37q25 0 39 -2l43 -6l-43 -291q-12 3 -23.5 4.5t-22.5 2t-15 1.5q-14 2 -37 2q-114 0 -184 -67
q-72 -72 -90 -187l-76 -518h-312z" />
    <glyph glyph-name="Rcaron" unicode="&#x158;" horiz-adv-x="1388" 
d="M408 0l-328 -2l201 1440h567q215 0 352 -119q141 -120 141 -303t-110 -305q-111 -123 -303 -166l352 -545h-379l-326 524h-96zM795 1155l-232 -4l-51 -369h236q114 0 182 56q67 55 67 149q0 75 -55 121q-59 47 -147 47zM1217 1858l-248 -306h-348l-160 306h264l86 -158
l127 158h279z" />
    <glyph glyph-name="rcaron" unicode="&#x159;" horiz-adv-x="821" 
d="M985 1468l-248 -305h-348l-160 305h265l86 -157l127 157h278zM205 1042l291 -2l-19 -125q60 72 135 109t166 37q25 0 39 -2l43 -6l-43 -291q-12 3 -23.5 4.5t-22.5 2t-15 1.5q-14 2 -37 2q-114 0 -184 -67q-74 -74 -91 -187l-75 -518h-312z" />
    <glyph glyph-name="Sacute" unicode="&#x15a;" horiz-adv-x="1273" 
d="M702 1466q243 0 388 -127t139 -344h-334q3 91 -49 140t-154 49q-85 0 -137 -37q-51 -36 -51 -100q0 -47 31 -78q33 -33 104 -56l190 -65q181 -61 263 -160q84 -104 84 -242q0 -217 -148 -344q-151 -127 -393 -127q-271 0 -428 136q-158 137 -146 370h332q-6 -99 60 -159
q64 -58 182 -58q96 0 151 43q56 44 56 119q0 53 -31 84q-28 28 -129 65l-207 76q-146 53 -223 148q-76 94 -76 227q0 198 146 320q144 120 380 120zM879 1559h-306l213 305h310z" />
    <glyph glyph-name="sacute" unicode="&#x15b;" horiz-adv-x="1050" 
d="M739 1163h-305l213 305h309zM559 1069l2 6q195 0 313 -92q117 -91 117 -254h-315q3 56 -27 80q-31 25 -94 25q-55 0 -82 -21q-31 -22 -31 -57q0 -32 25 -51q26 -19 92 -37l62 -17q184 -47 258 -121q77 -74 77 -188q0 -167 -120 -266t-318 -99q-221 0 -356 97
q-130 95 -127 270h325q-3 -59 35 -94q33 -33 109 -33q56 0 92 25q35 24 35 67q0 33 -23 53t-90 37l-94 27q-168 46 -236 117q-67 70 -67 188q0 155 123 246q124 92 315 92z" />
    <glyph glyph-name="Scircumflex" unicode="&#x15c;" horiz-adv-x="1273" 
d="M702 1466q243 0 388 -127t139 -344h-334q3 91 -49 140t-154 49q-85 0 -137 -37q-51 -36 -51 -100q0 -47 31 -78q33 -33 104 -56l190 -65q181 -61 263 -160q84 -104 84 -242q0 -217 -148 -344q-151 -127 -393 -127q-271 0 -428 136q-158 137 -146 370h332q-6 -99 60 -159
q64 -58 182 -58q96 0 151 43q56 44 56 119q0 53 -31 84q-28 28 -129 65l-207 76q-146 53 -223 148q-76 94 -76 227q0 198 146 320q144 120 380 120zM352 1559l248 305h348l160 -305h-264l-86 157l-127 -157h-279z" />
    <glyph glyph-name="scircumflex" unicode="&#x15d;" horiz-adv-x="1050" 
d="M203 1163l248 305h348l159 -305h-264l-86 158l-127 -158h-278zM559 1069l2 6q195 0 313 -92q117 -91 117 -254h-315q3 56 -27 80q-31 25 -94 25q-55 0 -82 -21q-31 -22 -31 -57q0 -32 25 -51q26 -19 92 -37l62 -17q184 -47 258 -121q77 -74 77 -188q0 -167 -120 -266
t-318 -99q-221 0 -356 97q-130 95 -127 270h325q-3 -59 35 -94q33 -33 109 -33q56 0 92 25q35 24 35 67q0 33 -23 53t-90 37l-94 27q-168 46 -236 117q-67 70 -67 188q0 155 123 246q124 92 315 92z" />
    <glyph glyph-name="Scedilla" unicode="&#x15e;" horiz-adv-x="1273" 
d="M702 1466l-10 -8q242 0 387 -127q146 -128 140 -344h-334q3 90 -49 139q-53 50 -154 50q-85 0 -137 -37q-51 -36 -51 -101q0 -47 30 -77q32 -32 105 -56l190 -65q179 -61 262 -160q84 -104 84 -242q0 -201 -129 -327q-130 -127 -348 -142l-59 -75q97 -9 159 -64
q60 -57 60 -143q0 -116 -82 -189t-205 -73t-199 61q-75 60 -75 158h209q3 -26 22 -37q20 -13 49 -13q33 0 56 23q22 22 22 55q0 29 -18 47q-19 19 -52 19q-28 0 -43 -6q-13 -5 -24 -23l-166 84l152 191q-217 35 -330 163q-114 129 -105 330h332q-6 -100 60 -160
q63 -57 182 -57q96 0 151 43q56 44 56 119q0 53 -31 84q-37 32 -127 65l-207 76q-145 56 -223 152q-76 94 -76 227q0 198 146 320q144 120 380 120z" />
    <glyph glyph-name="scedilla" unicode="&#x15f;" horiz-adv-x="1050" 
d="M559 1069l-4 -4q195 0 313 -92q117 -92 117 -254h-315q3 56 -27 80t-94 24q-56 0 -82 -20q-31 -22 -31 -58q0 -32 25 -51q26 -19 92 -37l61 -16q182 -49 258 -123q78 -75 78 -188q0 -155 -100 -248q-104 -96 -277 -111l-59 -75q98 -9 160 -64q59 -56 59 -143
q0 -116 -82 -189t-205 -73q-122 0 -198 61t-76 158h209q3 -26 22 -37q18 -12 50 -12q33 0 55 22t22 55q0 29 -18 47q-19 19 -51 19q-28 0 -43 -6t-25 -23l-166 84l152 193q-167 27 -258 118q-89 92 -86 238h325q-3 -59 35 -94q33 -33 109 -33q56 0 92 25q35 24 35 67
q0 31 -21 49q-19 19 -92 41l-94 27q-164 49 -236 121q-67 70 -67 184q0 155 123 246q124 92 315 92z" />
    <glyph glyph-name="Scaron" unicode="&#x160;" horiz-adv-x="1273" 
d="M702 1466q243 0 388 -127t139 -344h-334q3 91 -49 140t-154 49q-85 0 -137 -37q-51 -36 -51 -100q0 -47 31 -78q33 -33 104 -56l190 -65q181 -61 263 -160q84 -104 84 -242q0 -217 -148 -344q-151 -127 -393 -127q-271 0 -428 136q-158 137 -146 370h332q-6 -99 60 -159
q64 -58 182 -58q96 0 151 43q56 44 56 119q0 53 -31 84q-28 28 -129 65l-207 76q-146 53 -223 148q-76 94 -76 227q0 198 146 320q144 120 380 120zM1159 1864l-248 -305h-348l-160 305h265l86 -158l127 158h278z" />
    <glyph glyph-name="scaron" unicode="&#x161;" horiz-adv-x="1050" 
d="M1014 1468l-248 -305h-348l-160 305h264l86 -157l127 157h279zM559 1069l2 6q195 0 313 -92q117 -91 117 -254h-315q3 56 -27 80q-31 25 -94 25q-55 0 -82 -21q-31 -22 -31 -57q0 -32 25 -51q26 -19 92 -37l62 -17q184 -47 258 -121q77 -74 77 -188q0 -167 -120 -266
t-318 -99q-221 0 -356 97q-130 95 -127 270h325q-3 -59 35 -94q33 -33 109 -33q56 0 92 25q35 24 35 67q0 33 -23 53t-90 37l-94 27q-168 46 -236 117q-67 70 -67 188q0 155 123 246q124 92 315 92z" />
    <glyph glyph-name="uni0162" unicode="&#x162;" horiz-adv-x="1159" 
d="M401 0l-69 -6l160 1143h-386l41 297h1100l-43 -297h-387l-162 -1143h-53l-78 -100q98 -9 160 -64q59 -56 59 -143q0 -117 -81 -189q-82 -73 -205 -73t-199 61t-76 158h209q3 -26 23 -37q20 -13 49 -13q32 0 55 23t23 55q0 28 -19 47t-51 19q-28 0 -43 -6t-25 -23l-165 84
z" />
    <glyph glyph-name="uni0163" unicode="&#x163;" horiz-adv-x="843" 
d="M836 1042l-50 -290h-247l-58 -383q-12 -70 19 -105q29 -33 104 -33q22 0 68 11q37 11 67 28l-39 -278q-31 -15 -75 -21q-43 -6 -93 -6h-6l-57 -74q100 -9 160 -63q59 -56 59 -143q0 -116 -82 -189q-83 -74 -205 -74q-121 0 -198 62q-76 61 -76 158h209q3 -26 22 -37
q20 -13 50 -13q32 0 55 23q22 22 22 55q0 29 -18 47q-19 19 -51 19q-28 0 -43 -6t-25 -23l-166 84l166 209q-105 39 -149 135q-42 92 -21 242l58 387h-162l39 278h166l47 314l317 53l-53 -367h246z" />
    <glyph glyph-name="Tcaron" unicode="&#x164;" horiz-adv-x="1159" 
d="M664 0h-324l160 1143h-385l41 297h1099l-43 -297h-387zM1153 1864l-248 -305h-348l-160 305h265l86 -158l126 158h279z" />
    <glyph glyph-name="tcaron" unicode="&#x165;" horiz-adv-x="843" 
d="M1106 1452l-170 -283h-178l139 234q-47 18 -74 59q-26 39 -26 90q0 70 47 117t121 47q69 0 122 -47q50 -47 50 -117q0 -17 -7 -45q-6 -26 -24 -55zM831 1042l-40 -282h-248l-58 -383q-9 -69 19 -105q25 -32 102 -32q26 0 68 10q33 10 67 29l-39 -279q-28 -14 -75 -20
q-51 -7 -92 -7q-214 0 -302 101q-89 103 -59 303l57 387h-161l39 278h165l48 314l317 53l-53 -367h245z" />
    <glyph glyph-name="Tbar" unicode="&#x166;" horiz-adv-x="1198" 
d="M682 0h-324l86 618h-258l31 222h258l43 303h-385l41 297h1100l-43 -297h-387l-43 -303h256l-29 -222h-258z" />
    <glyph glyph-name="tbar" unicode="&#x167;" horiz-adv-x="862" 
d="M545 641l243 -4l-28 -219h-252l-6 -41q-12 -71 18 -105q28 -32 105 -32q25 0 67 10q35 10 68 29l-39 -279q-27 -14 -76 -20q-51 -7 -92 -7q-213 0 -301 101q-89 103 -59 303l6 45h-156l29 219h159l19 123h-162l39 278h166l47 314l317 53l-53 -367h246l-39 -278h-248z" />
    <glyph glyph-name="Utilde" unicode="&#x168;" horiz-adv-x="1421" 
d="M944 492l129 950h324l-135 -981q-30 -225 -189 -357q-156 -129 -397 -129q-255 0 -412 160t-123 406l125 901h326l-125 -914q-15 -110 47 -178q61 -67 174 -67q107 0 174 55q67 58 82 154zM901 1802l-14 -4q23 -18 39 -26q14 -7 22 -7q22 0 31 19q11 25 16 65h205
q-9 -151 -63 -223q-56 -74 -162 -74q-37 0 -70 13q-34 15 -76 49q-27 28 -38 31q-12 6 -27 6q-27 0 -39 -21t-18 -67h-207q9 151 67 227t170 76q37 0 78 -13q42 -12 86 -51z" />
    <glyph glyph-name="utilde" unicode="&#x169;" horiz-adv-x="1214" 
d="M846 1042l309 -2l-147 -1042h-293l14 100q-54 -60 -129 -94q-67 -33 -156 -33q-175 0 -270 121q-94 119 -70 301l91 645h313l-84 -587q-12 -91 27 -142q41 -53 122 -53q76 0 125 49q50 50 62 131zM750 1405l-15 -4q27 -21 39 -27t23 -6q21 0 30 18q12 28 17 66h205
q-9 -149 -64 -223q-56 -74 -162 -74q-39 0 -69 12q-31 14 -76 50q-26 25 -39 30q-12 6 -27 6q-28 0 -39 -20q-12 -21 -18 -68h-207q9 151 68 228q57 75 170 75q40 0 78 -12q42 -12 86 -51z" />
    <glyph glyph-name="Umacron" unicode="&#x16a;" horiz-adv-x="1421" 
d="M944 492l129 950h324l-135 -981q-30 -225 -189 -357q-156 -129 -397 -129q-255 0 -412 160t-123 406l125 901h326l-125 -914q-15 -110 47 -178q61 -67 174 -67q107 0 174 55q67 58 82 154zM1143 1593h-594l29 209h593z" />
    <glyph glyph-name="umacron" unicode="&#x16b;" horiz-adv-x="1214" 
d="M846 1042l309 -2l-147 -1042h-293l14 100q-54 -60 -129 -94q-67 -33 -156 -33q-175 0 -270 121q-94 119 -70 301l91 645h313l-84 -587q-12 -91 27 -142q41 -53 122 -53q76 0 125 49q50 50 62 131zM985 1196h-594l29 209h594z" />
    <glyph glyph-name="Ubreve" unicode="&#x16c;" horiz-adv-x="1421" 
d="M944 492l129 950h324l-135 -981q-30 -225 -189 -357q-156 -129 -397 -129q-255 0 -412 160t-123 406l125 901h326l-125 -914q-15 -110 47 -178q61 -67 174 -67q107 0 174 55q67 58 82 154zM877 1540h4q-146 0 -246 92q-98 91 -98 228h227q0 -55 31 -91q30 -34 84 -34
t84 34q30 35 30 91h228q0 -136 -99 -228q-100 -92 -245 -92z" />
    <glyph glyph-name="ubreve" unicode="&#x16d;" horiz-adv-x="1214" 
d="M846 1042l309 -2l-147 -1042h-293l14 100q-54 -60 -129 -94q-67 -33 -156 -33q-175 0 -270 121q-94 119 -70 301l91 645h313l-84 -587q-12 -91 27 -142q41 -53 122 -53q76 0 125 49q50 50 62 131zM705 1141h4q-146 0 -246 92q-98 91 -98 227h227q0 -54 31 -90
q30 -35 84 -35t84 35q30 34 30 90h228q0 -136 -99 -227q-100 -92 -245 -92z" />
    <glyph glyph-name="Uring" unicode="&#x16e;" horiz-adv-x="1421" 
d="M1120 1772l-2 2q0 -100 -71 -168t-177 -68t-178 66q-69 63 -69 165q0 98 71 166t176 68q103 0 177 -68q73 -67 73 -163zM795 1774h-2q0 -34 22 -56t55 -22q34 0 56 22t22 56q0 33 -22 55t-56 22q-33 0 -55 -22q-20 -20 -20 -55zM940 494l129 950h324l-136 -981
q-30 -226 -188 -357q-156 -129 -397 -129q-255 0 -412 160t-123 406l125 901h326l-125 -914q-15 -110 47 -178q61 -67 174 -67q107 0 174 55q67 58 82 154z" />
    <glyph glyph-name="uring" unicode="&#x16f;" horiz-adv-x="1214" 
d="M954 1376l-2 2q0 -100 -71 -168q-70 -67 -176 -67q-108 0 -179 65q-69 63 -69 166q0 98 71 166t177 68q102 0 176 -68q73 -67 73 -164zM629 1378h-2q0 -33 22 -55q23 -23 56 -23q32 0 55 23q22 22 22 55q0 34 -22 56t-55 22q-34 0 -56 -22q-20 -20 -20 -56zM842 1044
l309 -2l-147 -1042h-293l14 100q-54 -60 -129 -94q-67 -33 -156 -33q-175 0 -270 121q-94 119 -70 301l90 645h314l-84 -587q-12 -92 26 -142q41 -53 123 -53q76 0 125 49q50 50 62 131z" />
    <glyph glyph-name="Uhungarumlaut" unicode="&#x170;" horiz-adv-x="1421" 
d="M666 1864h292l-182 -305h-289zM1028 1864h293l-184 -305h-289zM944 492l129 950h324l-135 -981q-30 -225 -189 -357q-156 -129 -397 -129q-255 0 -412 160t-123 406l125 901h326l-125 -914q-15 -110 47 -178q61 -67 174 -67q107 0 174 55q67 58 82 154z" />
    <glyph glyph-name="uhungarumlaut" unicode="&#x171;" horiz-adv-x="1214" 
d="M846 1042l309 -2l-147 -1042h-293l14 100q-54 -60 -129 -94q-67 -33 -156 -33q-175 0 -270 121q-94 119 -70 301l91 645h313l-84 -587q-12 -91 27 -142q41 -53 122 -53q76 0 125 49q50 50 62 131zM537 1466h292l-182 -305h-289zM899 1466h293l-184 -305h-289z" />
    <glyph glyph-name="Uogonek" unicode="&#x172;" horiz-adv-x="1421" 
d="M688 281l4 -11q108 0 172 58q67 61 82 153l133 949h324l-135 -981q-15 -116 -68 -211q-53 -96 -141 -166q-165 -129 -248 -222q-74 -83 -74 -147q0 -31 23 -51q22 -19 61 -19q19 0 43 7l43 16l-28 -201q-34 -18 -80 -28q-57 -11 -88 -11q-104 0 -172 56t-68 151
q0 84 43 160q39 71 166 186h-21q-113 0 -217 43q-109 44 -178 119q-79 85 -108 184q-30 103 -15 224l125 901h326l-125 -914q-15 -110 47 -178q61 -67 174 -67z" />
    <glyph glyph-name="uogonek" unicode="&#x173;" horiz-adv-x="1214" 
d="M846 1042l311 -6l-147 -1042h-64q-114 -102 -172 -176q-51 -63 -51 -111q0 -32 22 -51q21 -18 60 -18q21 0 45 6l49 16l-29 -201q-44 -19 -79 -26q-36 -8 -86 -8q-108 0 -175 55t-67 151q0 86 51 160q50 78 203 213l14 94q-54 -60 -129 -94q-67 -33 -156 -33
q-175 0 -270 121q-94 119 -70 301l91 645h313l-84 -587q-15 -90 25 -142q41 -53 122 -53q76 0 125 49q50 50 62 131z" />
    <glyph glyph-name="Wcircumflex" unicode="&#x174;" horiz-adv-x="2111" 
d="M821 1559l248 305h348l160 -305h-264l-86 157l-127 -157h-279zM717 0h-346l-209 1440h342l112 -985l414 985h299l141 -985l385 985h345l-615 -1440h-346l-137 866z" />
    <glyph glyph-name="wcircumflex" unicode="&#x175;" horiz-adv-x="1779" 
d="M596 1163l248 305h348l160 -305h-265l-86 158l-127 -158h-278zM610 0h-315l-199 1042h303l115 -649l297 649h299l115 -651l295 651h311l-494 -1042h-313l-119 618z" />
    <glyph glyph-name="Ycircumflex" unicode="&#x176;" horiz-adv-x="1361" 
d="M768 0h-326l70 487l-352 953h356l201 -598l381 598h354l-612 -936zM453 1559l247 305h349l159 -305h-264l-86 157l-127 -157h-278z" />
    <glyph glyph-name="ycircumflex" unicode="&#x177;" horiz-adv-x="1142" 
d="M864 1042h328l-733 -1476h-322l203 416l-246 1060h322l133 -647zM279 1163l247 305h348l160 -305h-264l-86 158l-127 -158h-278z" />
    <glyph glyph-name="Ydieresis" unicode="&#x178;" horiz-adv-x="1361" 
d="M768 0h-326l70 487l-352 953h356l201 -598l381 598h354l-612 -936zM817 1704h-2q0 -65 -43 -111q-42 -45 -106 -45q-67 0 -109 45q-43 46 -43 111t43 111q42 45 109 45q66 0 108 -45q43 -46 43 -111zM1174 1704h-3q0 -65 -43 -111q-42 -45 -106 -45q-66 0 -111 45
t-45 111t45 111t111 45t108 -45q44 -47 44 -111z" />
    <glyph glyph-name="Zacute" unicode="&#x179;" horiz-adv-x="1239" 
d="M1081 0h-1079l37 260l758 883h-613l41 297h1045l-39 -262l-756 -881h649zM913 1559h-305l213 305h309z" />
    <glyph glyph-name="zacute" unicode="&#x17a;" horiz-adv-x="1071" 
d="M784 1163h-305l213 305h309zM934 0h-944l28 207l578 557h-467l41 278h881l-31 -221l-559 -542h512z" />
    <glyph glyph-name="Zdotaccent" unicode="&#x17b;" horiz-adv-x="1239" 
d="M946 1716h-2q0 -70 -49 -119t-119 -49t-119 49t-49 119t49 119t119 49q72 0 121 -49t49 -119zM1079 0h-1079l37 260l758 883h-613l41 297h1045l-39 -262l-756 -881h649z" />
    <glyph glyph-name="zdotaccent" unicode="&#x17c;" horiz-adv-x="1071" 
d="M934 0h-944l28 207l578 557h-467l41 278h881l-31 -221l-559 -542h512zM809 1323h-2q0 -70 -49 -119t-119 -49t-119 49t-49 119t49 119t119 49q72 0 121 -49t49 -119z" />
    <glyph glyph-name="Zcaron" unicode="&#x17d;" horiz-adv-x="1239" 
d="M1081 0h-1079l37 260l758 883h-613l41 297h1045l-39 -262l-756 -881h649zM1194 1864l-248 -305h-348l-160 305h264l86 -158l127 158h279z" />
    <glyph glyph-name="zcaron" unicode="&#x17e;" horiz-adv-x="1071" 
d="M1059 1468l-248 -305h-348l-160 305h264l86 -157l127 157h279zM934 0h-944l28 207l578 557h-467l41 278h881l-31 -221l-559 -542h512z" />
    <glyph glyph-name="longs" unicode="&#x17f;" horiz-adv-x="618" 
d="M530 1137l-161 -1141h-314l162 1155q27 201 129 295q104 96 279 96q62 0 114 -8q41 -6 105 -27l-37 -264l-70 17q-37 6 -69 6q-59 0 -95 -31q-34 -29 -43 -98z" />
    <glyph glyph-name="florin" unicode="&#x192;" horiz-adv-x="1122" 
d="M758 690l-205 -766q-59 -213 -160 -301t-266 -88q-65 0 -109 8q-36 6 -92 27l39 272q28 -12 60 -18q30 -6 59 -6q64 0 102 30t56 99l204 741h-190l39 275h227l53 192q56 200 158 295q103 92 264 92q70 0 111 -8q46 -8 92 -25l-39 -272q-27 12 -61 18q-40 7 -64 7
q-61 0 -100 -31q-37 -29 -55 -98l-47 -168h190l-39 -275h-227z" />
    <glyph glyph-name="uni0218" unicode="&#x218;" horiz-adv-x="1273" 
d="M707 -360l-111 -232h-160l90 182q-47 15 -73 54q-27 34 -27 84q0 63 43 106t109 43q67 0 110 -43t43 -106q0 -22 -6 -43zM707 1468q242 0 387 -127t139 -344h-334q3 91 -49 140t-154 49q-85 0 -137 -37q-51 -36 -51 -100q0 -47 31 -78q33 -33 104 -56l191 -65
q179 -61 262 -160q84 -104 84 -241q0 -218 -148 -345q-151 -127 -393 -127q-271 0 -428 136t-145 370h331q-6 -99 60 -159q64 -58 182 -58q97 0 152 43t55 119q0 53 -31 84q-30 30 -129 66l-207 75q-146 53 -223 148q-76 94 -76 227q0 198 146 320q144 120 381 120z" />
    <glyph glyph-name="uni0219" unicode="&#x219;" horiz-adv-x="1050" 
d="M586 -360l-111 -232h-160l91 182q-48 16 -74 54q-27 34 -27 84q0 63 43 106t109 43q67 0 110 -43t43 -106q0 -22 -6 -43zM563 1071l2 6q196 0 314 -92q116 -91 116 -254h-315q3 56 -27 80q-31 25 -94 25q-55 0 -82 -21q-31 -22 -31 -57q0 -32 25 -51q26 -19 92 -37
l62 -17q184 -47 258 -121q78 -75 78 -188q0 -166 -121 -266q-119 -98 -318 -98q-222 0 -356 96q-130 95 -127 270h326q-3 -60 34 -94q33 -33 109 -33q56 0 92 25q35 24 35 67q0 34 -23 54q-22 19 -90 36l-94 27q-167 46 -235 117t-68 188q0 154 123 246q124 92 315 92z" />
    <glyph glyph-name="uni021A" unicode="&#x21a;" horiz-adv-x="1159" 
d="M590 -360l-111 -232h-160l91 182q-48 16 -74 54q-27 34 -27 84q0 63 43 106t109 43q67 0 110 -43t43 -106q0 -22 -6 -43zM668 2h-324l160 1143h-385l41 297h1100l-43 -297h-388z" />
    <glyph glyph-name="uni021B" unicode="&#x21b;" horiz-adv-x="843" 
d="M446 -360l-110 -232h-160l90 182q-47 15 -73 54q-27 34 -27 84q0 63 43 106t108 43q68 0 111 -43t43 -106q0 -22 -6 -43zM840 1044l-41 -282h-248l-57 -383q-9 -71 18 -105q25 -32 102 -32q26 0 68 10q35 10 68 29l-39 -279q-27 -14 -76 -20q-51 -7 -92 -7
q-213 0 -301 101q-90 104 -60 303l58 387h-162l39 278h166l47 314l317 53l-53 -367h246z" />
    <glyph glyph-name="uni0237" unicode="&#x237;" horiz-adv-x="595" 
d="M70 -49l147 1089h313l-155 -1114q-27 -203 -127 -295q-104 -96 -277 -96q-45 0 -88 6q-46 6 -67 15l37 270l38 -6q14 -2 37 -2q64 0 99 30q34 29 43 103z" />
    <glyph glyph-name="circumflex" unicode="&#x2c6;" horiz-adv-x="897" 
d="M49 1163l248 305h348l160 -305h-264l-86 158l-127 -158h-279z" />
    <glyph glyph-name="caron" unicode="&#x2c7;" horiz-adv-x="935" 
d="M893 1468l-248 -305h-348l-160 305h264l86 -157l127 157h279z" />
    <glyph glyph-name="uni02C9" unicode="&#x2c9;" horiz-adv-x="755" 
d="M662 1198h-594l28 209h594z" />
    <glyph glyph-name="breve" unicode="&#x2d8;" horiz-adv-x="813" 
d="M428 1143h4q-146 0 -246 92q-98 91 -98 227h227q0 -54 31 -90q30 -35 84 -35t84 35q31 36 31 90h227q0 -136 -98 -227q-100 -92 -246 -92z" />
    <glyph glyph-name="dotaccent" unicode="&#x2d9;" horiz-adv-x="501" 
d="M420 1323h-2q0 -70 -49 -119t-119 -49t-119 49t-49 119t49 119t119 49q72 0 121 -49t49 -119z" />
    <glyph glyph-name="ring" unicode="&#x2da;" horiz-adv-x="610" 
d="M553 1376l-2 2q0 -99 -72 -168q-70 -67 -176 -67q-107 0 -178 65q-70 64 -70 166q0 97 72 166q71 68 176 68q102 0 176 -68t74 -164zM227 1378h-2q0 -32 23 -55t55 -23t55 23t23 55q0 33 -23 56q-22 22 -55 22t-55 -22q-21 -21 -21 -56z" />
    <glyph glyph-name="ogonek" unicode="&#x2db;" horiz-adv-x="614" 
d="M74 -365v-2q0 77 47 154q49 77 231 231h234q-150 -135 -203 -200q-49 -61 -49 -107q0 -32 22 -51q21 -18 60 -18q21 0 45 6l49 16l-29 -201q-44 -19 -80 -26q-36 -8 -86 -8q-107 0 -174 55t-67 151z" />
    <glyph glyph-name="tilde" unicode="&#x2dc;" horiz-adv-x="829" 
d="M459 1407l-15 -4q27 -21 39 -27t23 -6q22 0 31 19q11 25 16 65h205q-9 -149 -64 -223q-56 -74 -162 -74q-39 0 -69 12q-31 14 -76 50q-26 25 -39 30q-12 6 -26 6q-28 0 -39 -20q-13 -23 -19 -68h-207q9 151 68 228q57 75 170 75q41 0 78 -12q42 -12 86 -51z" />
    <glyph glyph-name="hungarumlaut" unicode="&#x2dd;" horiz-adv-x="937" 
d="M231 1468h293l-182 -305h-289zM594 1468h293l-185 -305h-288z" />
    <glyph glyph-name="uni0394" unicode="&#x394;" horiz-adv-x="1345" 
d="M1239 240l-33 -240h-1216l33 240l602 1200h348zM754 1057l-365 -766h514z" />
    <glyph glyph-name="uni03A9" unicode="&#x3a9;" horiz-adv-x="1607" 
d="M649 0l-600 -2l41 297h270q-122 110 -178 225q-57 111 -57 252q0 292 215 492q218 200 528 200q308 0 494 -174q190 -175 190 -442q0 -168 -75 -303q-74 -133 -230 -252h199l-41 -297h-594l49 364q181 82 270 197q91 117 91 260q0 145 -99 244q-98 98 -256 98
q-174 0 -288 -117q-115 -121 -115 -286q0 -110 59 -205q60 -97 178 -178z" />
    <glyph glyph-name="uni03BC" unicode="&#x3bc;" horiz-adv-x="1251" 
d="M866 1042l308 -2l-148 -1042h-293l15 100q-53 -59 -130 -94q-67 -33 -155 -33q-17 0 -45 4q-18 3 -39 13l-60 -426h-311l207 1476h313l-84 -598q-12 -90 27 -135q40 -49 123 -49q76 0 125 49t61 131z" />
    <glyph glyph-name="pi" unicode="&#x3c0;" horiz-adv-x="1394" 
d="M137 1042h1268l-41 -284h-150l-106 -758h-309l104 758h-346l-106 -758h-312l107 758h-150z" />
    <glyph glyph-name="Wgrave" unicode="&#x1e80;" horiz-adv-x="2111" 
d="M1030 1559l-129 305h293l125 -305h-289zM717 0h-346l-209 1440h342l112 -985l414 985h299l141 -985l385 985h345l-615 -1440h-346l-137 866z" />
    <glyph glyph-name="wgrave" unicode="&#x1e81;" horiz-adv-x="1779" 
d="M610 0h-315l-199 1042h303l115 -649l297 649h299l115 -651l295 651h311l-494 -1042h-313l-119 618zM803 1163l-129 305h293l125 -305h-289z" />
    <glyph glyph-name="Wacute" unicode="&#x1e82;" horiz-adv-x="2111" 
d="M1348 1559h-306l213 305h310zM717 0h-346l-209 1440h342l112 -985l414 985h299l141 -985l385 985h345l-615 -1440h-346l-137 866z" />
    <glyph glyph-name="wacute" unicode="&#x1e83;" horiz-adv-x="1779" 
d="M1133 1163h-306l213 305h310zM610 0h-315l-199 1042h303l115 -649l297 649h299l115 -651l295 651h311l-494 -1042h-313l-119 618z" />
    <glyph glyph-name="Wdieresis" unicode="&#x1e84;" horiz-adv-x="2111" 
d="M717 0h-346l-209 1440h342l112 -985l414 985h299l141 -985l385 985h345l-615 -1440h-346l-137 866zM1186 1704h-2q0 -65 -43 -111q-42 -45 -107 -45q-66 0 -108 45q-43 46 -43 111t43 111q42 45 108 45q67 0 109 -45q43 -46 43 -111zM1542 1704h-2q0 -65 -43 -111
q-42 -45 -106 -45q-66 0 -111 45t-45 111t45 111t111 45t108 -45q43 -46 43 -111z" />
    <glyph glyph-name="wdieresis" unicode="&#x1e85;" horiz-adv-x="1779" 
d="M967 1311h-2q0 -65 -43 -111q-42 -45 -107 -45q-66 0 -108 45q-43 46 -43 111q0 64 43 110q42 45 108 45q67 0 109 -45q43 -46 43 -110zM1323 1311h-2q0 -65 -43 -111q-42 -45 -107 -45t-110 45t-45 111q0 65 45 110t110 45q67 0 109 -45q43 -46 43 -110zM606 0h-315
l-199 1042h303l115 -649l297 649h299l115 -651l295 651h311l-494 -1042h-313l-119 618z" />
    <glyph glyph-name="uni1E9E" unicode="&#x1e9e;" horiz-adv-x="1503" 
d="M1016 1149l-127 -4q-158 0 -264 -92q-105 -91 -129 -262l-111 -795h-326l113 799q46 315 234 479q186 162 509 162h494l-35 -256l-299 -359q149 -21 240 -129q92 -109 92 -254q0 -207 -137 -338t-357 -131q-87 0 -184 19q-96 20 -174 55l41 283q60 -35 135 -56
q70 -20 148 -20q96 0 151 49t55 137q0 65 -45 107q-46 43 -118 43q-22 0 -43 -6l-39 -17l-160 201z" />
    <glyph glyph-name="Ygrave" unicode="&#x1ef2;" horiz-adv-x="1361" 
d="M768 0h-326l70 487l-352 953h356l201 -598l381 598h354l-612 -936zM662 1559l-130 305h293l125 -305h-288z" />
    <glyph glyph-name="ygrave" unicode="&#x1ef3;" horiz-adv-x="1142" 
d="M864 1042h328l-733 -1476h-322l203 416l-246 1060h322l133 -647zM483 1163l-129 305h293l125 -305h-289z" />
    <glyph glyph-name="endash" unicode="&#x2013;" 
d="M129 662h907v-269h-907v269z" />
    <glyph glyph-name="emdash" unicode="&#x2014;" horiz-adv-x="2140" 
d="M129 662h1878v-269h-1878v269z" />
    <glyph glyph-name="quoteleft" unicode="&#x2018;" horiz-adv-x="569" 
d="M399 1440l222 2l-201 -338q54 -25 84 -74q31 -51 31 -106q0 -90 -58 -148q-57 -57 -147 -57q-91 0 -148 57t-57 148q0 20 10 53q7 20 31 67z" />
    <glyph glyph-name="quoteright" unicode="&#x2019;" horiz-adv-x="575" 
d="M350 745l-225 -4l201 338q-54 25 -84 74q-31 51 -31 109q0 90 57 147t148 57q90 0 147 -57q60 -60 60 -147q0 -30 -9 -54q-9 -26 -30 -67z" />
    <glyph glyph-name="quotesinglbase" unicode="&#x201a;" horiz-adv-x="575" 
d="M174 -346l-225 -4l201 338q-55 25 -84 73q-31 51 -31 109q0 90 57 147q58 58 148 58q89 0 147 -58q59 -59 59 -147q0 -32 -8 -53q-9 -28 -30 -68z" />
    <glyph glyph-name="quotedblleft" unicode="&#x201c;" horiz-adv-x="1060" 
d="M399 1440l222 2l-201 -338q54 -25 84 -74q31 -51 31 -106q0 -90 -58 -148q-57 -57 -147 -57q-91 0 -148 57t-57 148q0 20 10 53q7 20 31 67zM887 1442l221 2l-201 -338q54 -25 84 -74q31 -51 31 -106q0 -91 -57 -148t-148 -57q-90 0 -147 57q-58 58 -58 148q0 16 11 53
q9 28 30 68z" />
    <glyph glyph-name="quotedblright" unicode="&#x201d;" horiz-adv-x="1064" 
d="M350 745l-225 -4l201 338q-54 25 -84 74q-31 51 -31 109q0 90 57 147t148 57q90 0 147 -57q60 -60 60 -147q0 -30 -9 -54q-9 -26 -30 -67zM840 741l-226 -4l201 338q-54 25 -84 74q-31 51 -31 108q0 90 58 148q57 57 147 57q91 0 148 -57q59 -59 59 -148q0 -32 -8 -53
q-7 -20 -31 -67z" />
    <glyph glyph-name="quotedblbase" unicode="&#x201e;" horiz-adv-x="1064" 
d="M174 -346l-225 -4l201 338q-55 25 -84 73q-31 51 -31 109q0 90 57 147q58 58 148 58q89 0 147 -58q59 -59 59 -147q0 -32 -8 -53q-9 -28 -30 -68zM664 -350l-226 -4l201 338q-55 25 -84 73q-31 51 -31 109q0 89 58 147t147 58q90 0 148 -58q59 -59 59 -147q0 -32 -8 -53
q-8 -23 -31 -68z" />
    <glyph glyph-name="dagger" unicode="&#x2020;" horiz-adv-x="978" 
d="M100 827l37 258h275l43 308l319 71l-53 -379h274l-34 -258h-277l-109 -778l-319 -74l119 852h-275z" />
    <glyph glyph-name="daggerdbl" unicode="&#x2021;" horiz-adv-x="1042" 
d="M66 356l36 258h277l29 213h-275l35 258h276l43 308l320 71l-53 -379h274l-35 -258h-276l-29 -213h275l-37 -258h-275l-43 -307l-319 -74l53 381h-276z" />
    <glyph glyph-name="bullet" unicode="&#x2022;" horiz-adv-x="815" 
d="M725 743h-6q0 -117 -82 -196q-83 -80 -205 -80q-123 0 -203 80q-79 79 -79 196q0 124 79 203q80 80 205 80q126 0 209 -80q82 -79 82 -203z" />
    <glyph glyph-name="ellipsis" unicode="&#x2026;" horiz-adv-x="1585" 
d="M444 172q0 -82 -59 -141q-58 -58 -147 -58q-90 0 -148 58q-57 57 -57 141q0 90 57 147q58 58 148 58q89 0 147 -58q59 -59 59 -147zM952 172q0 -82 -59 -141q-58 -58 -148 -58q-89 0 -147 58q-57 57 -57 141q0 90 57 147q58 58 147 58q90 0 148 -58q59 -59 59 -147z
M1460 172q0 -82 -59 -141q-58 -58 -148 -58q-89 0 -147 58q-57 57 -57 141q0 90 57 147q58 58 147 58q90 0 148 -58q59 -59 59 -147z" />
    <glyph glyph-name="perthousand" unicode="&#x2030;" horiz-adv-x="2430" 
d="M856 1110l-2 -4q0 -149 -100 -246q-101 -98 -254 -98q-156 0 -254 98q-99 99 -99 248q0 147 99 246q98 98 256 98q153 0 254 -98q100 -97 100 -244zM1372 1436h256l-1294 -1440h-258zM358 1104l-6 -4q0 -60 41 -101q38 -38 103 -38q60 0 100 40q39 39 39 103
q0 65 -39 104q-40 43 -98 43q-61 0 -101 -43q-39 -39 -39 -104zM1552 324l-2 -5q0 -148 -100 -245q-102 -99 -254 -99q-155 0 -254 99q-98 98 -98 248q0 147 98 245q99 99 256 99q152 0 254 -99q100 -97 100 -243zM2335 319l-2 -4q0 -147 -101 -245q-102 -99 -254 -99
q-155 0 -254 99q-98 98 -98 247q0 148 98 246q99 99 256 99q152 0 254 -99q101 -98 101 -244zM1053 313l-4 -4q0 -59 41 -100q39 -39 102 -39q59 0 100 41q39 39 39 102q0 66 -39 105q-40 43 -100 43t-100 -43q-39 -39 -39 -105zM1831 309l-2 -4q0 -59 41 -100
q39 -39 102 -39q60 0 101 41q38 38 38 102q0 67 -38 105q-40 43 -99 43q-62 0 -102 -43q-41 -47 -41 -105z" />
    <glyph glyph-name="guilsinglleft" unicode="&#x2039;" horiz-adv-x="663" 
d="M223 74l-160 448l287 451h309l-299 -469l156 -430h-293z" />
    <glyph glyph-name="guilsinglright" unicode="&#x203a;" horiz-adv-x="665" 
d="M438 971l160 -449l-287 -450h-309l299 469l-156 430h293z" />
    <glyph glyph-name="fraction" unicode="&#x2044;" horiz-adv-x="335" 
d="M713 1440h256l-1295 -1440h-258z" />
    <glyph glyph-name="zero.superior" unicode="&#x2070;" horiz-adv-x="702" 
d="M442 995l-6 4q-135 0 -209 80q-72 78 -57 207l29 217q15 117 96 180q76 64 201 64q138 0 215 -80q75 -75 57 -205l-31 -219q-14 -115 -94 -182q-84 -66 -201 -66zM483 1554l-6 -2q-37 0 -57 -20q-24 -24 -27 -55l-24 -201q-3 -40 16 -62t59 -22t60 20q25 19 28 56l27 200
q6 39 -14 62q-21 24 -62 24z" />
    <glyph glyph-name="four.superior" unicode="&#x2074;" horiz-adv-x="688" 
d="M152 1272l311 457h244l-306 -437h107l14 99l203 47l-23 -146h50l-27 -184h-49l-12 -100h-197l14 100h-354z" />
    <glyph glyph-name="five.superior" unicode="&#x2075;" horiz-adv-x="634" 
d="M350 1292l-170 19l94 413h426l-24 -186h-258l-15 -65q2 2 15 2h24q108 0 172 -58q66 -60 66 -155q0 -116 -80 -193q-76 -76 -199 -76q-120 0 -196 64t-76 166h209q10 -22 24 -31q17 -10 41 -10q35 0 56 18q20 17 20 53q0 27 -18 45q-19 19 -47 19q-18 0 -33 -6t-31 -19z
" />
    <glyph glyph-name="six.superior" unicode="&#x2076;" horiz-adv-x="641" 
d="M702 1272l-2 -2q0 -115 -86 -195t-208 -80q-117 0 -187 70q-74 71 -74 172q0 55 29 127q29 66 84 135l186 232h244l-203 -242q99 -6 158 -68q59 -65 59 -149zM344 1243l-4 -4q0 -34 18 -55t54 -21t61 25t25 63q0 34 -19 56q-17 20 -49 20q-37 0 -61 -24q-25 -25 -25 -60z
" />
    <glyph glyph-name="seven.superior" unicode="&#x2077;" horiz-adv-x="606" 
d="M463 1534h-275l27 195h518l-22 -166l-336 -555h-236z" />
    <glyph glyph-name="eight.superior" unicode="&#x2078;" horiz-adv-x="673" 
d="M225 1536l2 -6q0 85 74 147t182 62t176 -56t68 -137q0 -47 -25 -92q-24 -44 -69 -70q41 -30 61 -69q23 -44 23 -86q0 -103 -82 -170q-83 -68 -209 -68q-114 0 -197 62q-82 61 -82 157q0 67 33 117q35 53 94 80q-24 27 -36 61q-13 37 -13 68zM410 1518l-7 -2q0 -27 19 -43
q24 -17 47 -17q32 0 51 19t19 49q0 24 -17 41q-16 16 -43 16q-33 0 -51 -18t-18 -45zM422 1151l-2 2q37 0 67 23q25 22 25 61q0 32 -20 49q-22 19 -56 19q-40 0 -65 -25t-25 -63q0 -30 21 -48t55 -18z" />
    <glyph glyph-name="nine.superior" unicode="&#x2079;" horiz-adv-x="643" 
d="M172 1466h-4q0 115 86 195t209 80q118 0 188 -70q74 -71 74 -172q0 -55 -29 -127q-29 -66 -84 -135l-186 -231h-244l203 241q-97 6 -156 68q-57 57 -57 151zM524 1493l2 4q0 34 -18 55t-51 21q-37 0 -62 -25q-24 -24 -24 -63q0 -34 18 -55t49 -21q37 0 62 25q24 24 24 59
z" />
    <glyph glyph-name="zero.inferior" unicode="&#x2080;" horiz-adv-x="700" 
d="M258 -301l-6 4q-135 0 -209 80q-72 78 -57 207l28 217q15 116 97 180q76 64 200 64q138 0 215 -80q76 -76 58 -205l-31 -219q-14 -116 -94 -183q-83 -65 -201 -65zM299 258l-6 -2q-37 0 -57 -20q-24 -24 -27 -56l-25 -200q-3 -39 17 -62q19 -22 59 -22q39 0 59 20
q26 20 29 55l27 201q6 37 -15 61q-22 25 -61 25z" />
    <glyph glyph-name="one.inferior" unicode="&#x2081;" horiz-adv-x="452" 
d="M244 -289h-205l76 527h-133l73 194h291z" />
    <glyph glyph-name="two.inferior" unicode="&#x2082;" horiz-adv-x="669" 
d="M297 -94l221 6l-26 -195h-543l24 181l289 213q33 23 49 49q17 31 17 49q0 22 -13 35q-12 12 -36 12q-28 0 -46 -18q-17 -17 -20 -45h-211q21 115 102 184q84 72 193 72q114 0 184 -58t70 -153q0 -75 -37 -136q-38 -64 -147 -143z" />
    <glyph glyph-name="three.inferior" unicode="&#x2083;" horiz-adv-x="663" 
d="M319 -51h-2q0 29 -24 47t-62 18h-61l20 146h70q35 0 57 16q19 16 19 49q0 25 -14 39q-15 15 -39 15q-21 0 -45 -17q-20 -16 -25 -47h-209q20 105 98 170q78 66 189 66q116 0 184 -56t68 -137q0 -56 -25 -104q-24 -46 -76 -70q42 -25 62 -61q20 -33 20 -82
q0 -100 -78 -172q-76 -70 -202 -70q-136 0 -205 63q-74 65 -74 172h201q3 -26 22 -45q18 -18 50 -18q39 0 59 20q22 22 22 58z" />
    <glyph glyph-name="four.inferior" unicode="&#x2084;" horiz-adv-x="688" 
d="M-31 -25l312 457h243l-305 -436h107l14 98l203 47l-23 -145h49l-26 -184h-49l-13 -101h-196l14 101h-354z" />
    <glyph glyph-name="five.inferior" unicode="&#x2085;" horiz-adv-x="632" 
d="M168 -4l-170 18l94 414h426l-24 -186h-258l-15 -66q2 2 15 2h24q109 0 172 -57q66 -60 66 -156q0 -115 -80 -192q-76 -76 -199 -76q-121 0 -196 63q-76 64 -76 166h209q9 -21 24 -30q18 -11 41 -11q33 0 55 19q21 18 21 53q0 27 -18 45t-48 18q-17 0 -32 -6
q-17 -7 -31 -18z" />
    <glyph glyph-name="six.inferior" unicode="&#x2086;" horiz-adv-x="641" 
d="M522 -25l-2 -2q0 -114 -86 -194t-209 -80q-116 0 -186 70q-74 71 -74 172q0 55 29 127q29 66 84 135l186 231h244l-203 -241q99 -6 158 -68q59 -65 59 -150zM164 -53l-4 -4q0 -35 18 -56q17 -20 53 -20q38 0 62 24t24 64q0 34 -18 55t-49 21q-37 0 -62 -25
q-24 -24 -24 -59z" />
    <glyph glyph-name="seven.inferior" unicode="&#x2087;" horiz-adv-x="604" 
d="M281 238h-275l27 194h518l-23 -166l-335 -555h-236z" />
    <glyph glyph-name="eight.inferior" unicode="&#x2088;" horiz-adv-x="675" 
d="M45 240l2 -7q0 86 74 148q73 61 182 61t176 -55q68 -56 68 -137q0 -47 -25 -92q-24 -44 -69 -70q40 -30 61 -70q23 -44 23 -86q0 -103 -82 -170t-209 -67q-115 0 -197 61t-82 158q0 67 33 117q35 53 94 80q-26 29 -37 61q-12 34 -12 68zM229 221l-6 -2q0 -27 19 -43
q22 -16 47 -16q33 0 51 18t18 49q0 25 -16 41q-17 17 -43 17q-32 0 -51 -19t-19 -45zM242 -145l-2 2q39 0 67 22q25 22 25 62q0 31 -21 49t-55 18q-42 0 -66 -24t-24 -64q0 -30 20 -47q21 -18 56 -18z" />
    <glyph glyph-name="nine.inferior" unicode="&#x2089;" horiz-adv-x="641" 
d="M-10 170h-4q0 115 86 195q85 79 209 79q119 0 188 -69q74 -71 74 -172q0 -55 -29 -127q-29 -66 -84 -135l-186 -232h-244l203 242q-98 6 -156 67q-57 57 -57 152zM342 197l2 4q0 34 -18 55q-17 20 -52 20q-37 0 -61 -24q-25 -25 -25 -64q0 -33 19 -55q17 -20 49 -20
q37 0 61 24q25 25 25 60z" />
    <glyph glyph-name="franc" unicode="&#x20a3;" horiz-adv-x="1828" 
d="M420 0h-326l203 1440h866l-43 -297h-540l-39 -287h491l-41 -297h-491zM1182 1042l291 -2l-19 -125q60 72 135 109t166 37q25 0 39 -2l43 -6l-43 -291q-12 3 -23.5 4.5t-22.5 2t-15 1.5q-14 2 -37 2q-115 0 -185 -67q-72 -72 -90 -187l-75 -518h-312z" />
    <glyph glyph-name="Euro" unicode="&#x20ac;" horiz-adv-x="1372" 
d="M573 674l254 -6l-28 -203h-252q3 -90 55 -139q53 -50 146 -50q89 0 145 56q57 57 72 155h321q-34 -238 -186 -378q-158 -140 -363 -140q-243 0 -381 135t-129 365h-151l28 203h146l12 90h-145l24 203h150q27 235 184 368t387 133q209 0 352 -143q144 -144 144 -375h-326
q0 95 -53 154q-51 57 -145 57q-85 0 -142 -51q-58 -52 -76 -141h252l-26 -203h-254z" />
    <glyph glyph-name="uni2113" unicode="&#x2113;" horiz-adv-x="987" 
d="M195 401l-144 -61l43 297l142 63l53 390q24 168 133 274q107 104 258 104q157 0 252 -86q96 -87 96 -217q0 -168 -121 -319q-122 -153 -362 -277l-17 -8l-20 -137q-15 -93 10 -135q24 -37 100 -37q40 0 80 12q42 12 80 39l-39 -280q-49 -25 -94 -37q-54 -13 -104 -13
q-206 0 -291 107t-55 321zM686 1194h2q-33 0 -55 -25q-21 -21 -27 -73l-33 -224q91 60 129 121q41 65 41 133q0 36 -14 50q-15 18 -43 18z" />
    <glyph glyph-name="trademark" unicode="&#x2122;" horiz-adv-x="1847" 
d="M584 662h-203v585h-199v193h600v-193h-198v-585zM1051 662h-199v778h227l226 -434l231 434h217v-778h-199v413l-213 -413h-77l-213 419v-419z" />
    <glyph glyph-name="Omega" unicode="&#x2126;" horiz-adv-x="1607" 
d="M649 0l-600 -2l41 297h270q-122 110 -178 225q-57 111 -57 252q0 292 215 492q218 200 528 200q308 0 494 -174q190 -175 190 -442q0 -168 -75 -303q-74 -133 -230 -252h199l-41 -297h-594l49 364q181 82 270 197q91 117 91 260q0 145 -99 244q-98 98 -256 98
q-174 0 -288 -117q-115 -121 -115 -286q0 -110 59 -205q60 -97 178 -178z" />
    <glyph glyph-name="estimated" unicode="&#x212e;" horiz-adv-x="1671" 
d="M877 117v-2q151 0 292 78q135 77 215 215h185q-116 -209 -299 -322q-180 -113 -400 -113q-306 0 -534 220q-221 218 -221 526q0 310 221 528q227 219 534 219q338 0 545 -223q209 -226 209 -602h-1110v-403q88 -63 172 -91q91 -30 191 -30zM872 1317h2q-95 0 -190 -31
q-85 -26 -168 -90v-405h709v413q-75 55 -166 84q-98 29 -187 29z" />
    <glyph glyph-name="uni2153" unicode="&#x2153;" horiz-adv-x="1525" 
d="M449 719h-205l75 526h-133l74 195h291zM1280 1440h256l-1294 -1440h-258zM1198 238h-2q0 28 -25 47q-24 18 -61 18h-61l20 146h70q35 0 57 16q18 15 18 49q0 25 -14 39t-39 14q-23 0 -45 -16q-19 -15 -24 -47h-209q20 105 98 170q77 65 188 65q118 0 185 -55t67 -137
q0 -59 -24 -105q-23 -45 -76 -69q39 -23 61 -62q21 -34 21 -82q0 -100 -78 -172q-75 -69 -203 -69q-135 0 -204 63q-74 65 -74 172h200q3 -25 23 -45q18 -18 49 -18q40 0 60 20q22 22 22 58z" />
    <glyph glyph-name="uni2154" unicode="&#x2154;" horiz-adv-x="1646" 
d="M455 913l221 7l-27 -195h-543l25 180l289 213q33 23 49 49q16 29 16 50q0 22 -12 34q-13 13 -37 13q-26 0 -45 -19q-17 -17 -20 -45h-211q21 115 102 184q84 72 193 72q115 0 184 -57q70 -58 70 -154q0 -74 -37 -135q-37 -63 -148 -143zM1407 1446h256l-1294 -1440h-258z
M1323 244h-2q0 28 -25 47q-24 18 -61 18h-61l20 146h70q35 0 57 16q18 15 18 49q0 25 -14 39t-39 14q-23 0 -45 -16q-19 -15 -24 -47h-209q20 105 98 170q77 65 188 65q118 0 185 -55t67 -137q0 -57 -24 -104q-24 -46 -76 -70q39 -23 61 -62q21 -35 21 -81q0 -101 -78 -173
q-75 -69 -203 -69q-136 0 -205 63q-73 64 -73 172h200q3 -25 23 -45q18 -18 49 -18q39 0 59 20q23 23 23 58z" />
    <glyph glyph-name="uni2155" unicode="&#x2155;" horiz-adv-x="1523" 
d="M1280 1440h256l-1294 -1440h-258zM449 719h-205l75 526h-133l74 195h291zM1065 285l-170 18l94 414h426l-24 -187h-258l-15 -65q2 2 15 2h24q109 0 172 -57q66 -60 66 -156q0 -116 -80 -193q-75 -75 -199 -75q-121 0 -196 63q-76 64 -76 166h209q10 -22 24 -31
q17 -10 41 -10q34 0 56 19q20 17 20 53q0 27 -18 45t-48 18q-17 0 -32 -6q-17 -7 -31 -18z" />
    <glyph glyph-name="uni2156" unicode="&#x2156;" horiz-adv-x="1634" 
d="M457 913l221 7l-27 -195h-542l24 180l289 213q33 23 49 49q16 29 16 50q0 22 -12 34q-13 13 -37 13q-26 0 -45 -19q-17 -17 -20 -45h-211q21 115 102 184q84 72 193 72q115 0 184 -57q70 -58 70 -154q0 -74 -37 -135q-37 -63 -148 -143zM1397 1446h256l-1295 -1440h-258z
M1180 291l-170 18l94 414h426l-25 -186h-258l-14 -66q2 2 14 2h25q109 0 172 -57q65 -59 65 -156q0 -116 -79 -192q-76 -76 -199 -76q-122 0 -197 63q-76 64 -76 166h209q9 -22 25 -31q17 -10 41 -10q33 0 55 19q21 18 21 53q0 26 -19 45q-18 18 -47 18q-18 0 -33 -6
t-30 -18z" />
    <glyph glyph-name="uni2157" unicode="&#x2157;" horiz-adv-x="1576" 
d="M1343 1440h256l-1294 -1440h-258zM1128 285l-170 18l95 414h426l-25 -187h-258l-14 -65q2 2 14 2h25q109 0 172 -57q65 -59 65 -156q0 -116 -80 -193q-75 -75 -198 -75q-122 0 -197 63q-76 64 -76 166h209q9 -22 25 -31q17 -10 41 -10q33 0 55 19q20 17 20 53
q0 27 -18 45t-47 18q-18 0 -33 -6q-17 -7 -31 -18zM475 948h-2q0 29 -24 47q-25 19 -62 19h-61l20 145h70q33 0 57 17q19 16 19 49q0 24 -15 39q-14 14 -39 14q-23 0 -45 -16q-18 -15 -24 -48h-209q20 105 98 170q78 66 188 66q118 0 185 -55t67 -138q0 -57 -24 -104
q-24 -46 -76 -70q40 -24 61 -61q21 -35 21 -82q0 -100 -78 -172q-76 -70 -203 -70q-134 0 -204 64q-74 65 -74 172h201q3 -26 22 -45t49 -19q39 0 60 21q22 22 22 57z" />
    <glyph glyph-name="uni2158" unicode="&#x2158;" horiz-adv-x="1642" 
d="M125 983l311 457h244l-305 -436h106l15 98l202 47l-22 -145h49l-27 -185h-49l-12 -100h-197l15 100h-355zM1401 1440h256l-1295 -1440h-258zM1186 285l-170 18l94 414h426l-25 -187h-258l-14 -65q2 2 14 2h25q109 0 172 -57q66 -60 66 -156q0 -116 -80 -193
q-75 -75 -199 -75q-122 0 -197 63t-75 166h209q10 -22 24 -31q17 -10 41 -10q33 0 55 19q21 18 21 53q0 26 -19 45q-18 18 -47 18q-17 0 -32 -6q-17 -7 -31 -18z" />
    <glyph glyph-name="uni2159" unicode="&#x2159;" horiz-adv-x="1490" 
d="M1362 264l-2 -2q0 -114 -86 -194t-209 -80q-117 0 -186 69q-74 71 -74 172q0 55 29 127q30 68 84 136l186 231h244l-203 -242q100 -6 158 -67q59 -65 59 -150zM1004 236l-5 -5q0 -33 19 -55q17 -20 53 -20q38 0 62 24t24 64q0 34 -18 55q-17 20 -49 20q-38 0 -62 -24
t-24 -59zM442 713h-204l75 526h-133l74 195h291zM1274 1434h256l-1294 -1440h-259z" />
    <glyph glyph-name="uni215A" unicode="&#x215a;" horiz-adv-x="1572" 
d="M1448 264l-2 -2q0 -114 -86 -194t-209 -80q-117 0 -186 69q-74 71 -74 172q0 55 29 127q30 68 84 136l186 231h244l-203 -242q100 -6 158 -67q59 -65 59 -150zM1090 236l-5 -5q0 -33 19 -55q17 -20 53 -20q38 0 62 24t24 64q0 34 -18 55q-17 20 -49 20q-38 0 -62 -24
t-24 -59zM1360 1434h256l-1294 -1440h-259zM332 995l-170 19l94 413h426l-25 -186h-258l-14 -65q2 2 14 2h25q108 0 172 -58q66 -60 66 -155q0 -116 -80 -193q-76 -76 -199 -76q-121 0 -197 64q-75 63 -75 166h208q9 -22 25 -31q17 -10 41 -10q34 0 55 18t21 53q0 26 -19 45
t-47 19q-18 0 -33 -6q-12 -5 -30 -19z" />
    <glyph glyph-name="uni215B" unicode="&#x215b;" horiz-adv-x="1517" 
d="M1280 1440h256l-1294 -1440h-258zM449 719h-205l75 526h-133l74 195h291zM905 528l2 -6q0 86 74 148q73 61 182 61t176 -55q68 -56 68 -137q0 -48 -25 -93q-23 -43 -69 -69q40 -30 61 -70q23 -44 23 -86q0 -103 -82 -170t-209 -67q-115 0 -197 61t-82 158q0 66 33 116
q35 53 94 80q-24 27 -36 62q-13 37 -13 67zM1090 510l-7 -2q0 -27 19 -43q22 -16 47 -16q33 0 51 18q19 19 19 49q0 24 -17 41q-16 16 -43 16q-33 0 -51 -18t-18 -45zM1102 143l-2 2q37 0 67 23q25 22 25 61q0 32 -21 50t-55 18q-40 0 -65 -25t-25 -63q0 -29 21 -47
q22 -19 55 -19z" />
    <glyph glyph-name="uni215C" unicode="&#x215c;" horiz-adv-x="1576" 
d="M1348 1440h256l-1295 -1440h-258zM971 528l2 -6q0 86 74 148q73 61 182 61t176 -55q68 -56 68 -137q0 -48 -25 -93q-23 -42 -70 -69q42 -31 62 -70q22 -42 22 -86q0 -103 -82 -170t-209 -67q-114 0 -196 61t-82 158q0 66 33 116q35 53 94 80q-25 29 -37 62q-12 34 -12 67
zM1155 510l-6 -2q0 -28 18 -43q22 -16 47 -16q34 0 52 18t18 49q0 25 -16 41t-43 16q-33 0 -51 -18q-19 -19 -19 -45zM1167 143l-2 2q38 0 68 23q24 21 24 61q0 33 -20 50q-21 18 -55 18q-41 0 -66 -25q-24 -24 -24 -63q0 -30 20 -47q22 -19 55 -19zM471 948h-2q0 28 -25 47
t-61 19h-61l20 145h70q33 0 57 17q18 15 18 49q0 25 -14 39t-39 14q-23 0 -45 -16q-18 -15 -24 -48h-209q20 105 98 170q78 66 188 66q118 0 185 -55t67 -138q0 -57 -24 -104q-24 -46 -76 -70q40 -24 61 -61q21 -35 21 -82q0 -100 -78 -172q-76 -70 -203 -70q-135 0 -205 64
q-73 64 -73 172h200q3 -25 23 -45q19 -19 49 -19q39 0 60 21q22 22 22 57z" />
    <glyph glyph-name="uni215D" unicode="&#x215d;" horiz-adv-x="1599" 
d="M1366 1440h256l-1294 -1440h-258zM338 1001l-170 19l94 414h426l-24 -187h-258l-15 -65q2 2 15 2h24q108 0 172 -58q66 -60 66 -155q0 -116 -80 -193q-76 -76 -199 -76q-120 0 -196 64t-76 166h209q10 -22 24 -31q17 -10 41 -10q34 0 55 18t21 54q0 27 -18 45t-48 18
q-17 0 -32 -6t-31 -19zM985 522l2 -6q0 86 74 148q73 61 182 61t176 -55q68 -56 68 -138q0 -47 -25 -92q-23 -43 -69 -69q40 -30 61 -70q23 -44 23 -86q0 -103 -82 -170q-83 -68 -209 -68q-114 0 -197 62q-82 61 -82 158q0 66 33 116q35 53 94 80q-25 29 -37 62
q-12 35 -12 67zM1169 504l-6 -2q0 -27 19 -43q24 -17 47 -17q32 0 51 19q18 18 18 49q0 25 -16 41t-43 16q-33 0 -51 -18q-19 -19 -19 -45zM1182 137l-2 2q37 0 67 23q25 22 25 61q0 31 -21 49q-22 19 -55 19q-41 0 -66 -25q-24 -24 -24 -63q0 -30 20 -47q22 -19 56 -19z
" />
    <glyph glyph-name="uni215E" unicode="&#x215e;" horiz-adv-x="1529" 
d="M489 1245h-274l27 195h518l-23 -166l-336 -555h-235zM1284 1440h256l-1294 -1440h-258zM920 528l2 -6q0 87 73 148t183 61q109 0 176 -55t67 -137q0 -49 -24 -93q-23 -42 -70 -69q42 -31 62 -70q22 -42 22 -86q0 -103 -82 -170t-209 -67q-114 0 -196 61t-82 158
q0 67 32 116q34 52 95 80q-25 29 -37 62q-12 34 -12 67zM1104 510l-6 -2q0 -28 18 -43q22 -16 47 -16q33 0 51 18q19 19 19 49q0 25 -16 41t-43 16q-34 0 -52 -18t-18 -45zM1116 143l-2 2q38 0 68 23q24 21 24 61q0 33 -20 50q-21 18 -56 18q-40 0 -65 -25t-25 -63
q0 -29 21 -47q22 -19 55 -19z" />
    <glyph glyph-name="uni215F" unicode="&#x215f;" horiz-adv-x="1482" 
d="M479 719h-205l76 526h-133l74 195h291zM1309 1440h256l-1295 -1440h-258z" />
    <glyph glyph-name="partialdiff" unicode="&#x2202;" horiz-adv-x="1249" 
d="M373 1257l41 285q381 -40 577 -242q195 -207 195 -565q0 -343 -174 -553q-177 -213 -449 -213q-222 0 -370 142t-148 348q0 219 150 375q151 157 358 157q117 0 201 -37q87 -38 141 -110q-27 170 -160 276q-133 103 -362 137zM854 506l4 4q0 96 -67 154q-71 59 -173 59
q-114 0 -184 -70q-74 -71 -74 -178q0 -93 66 -156q64 -61 172 -61q104 0 182 72q74 71 74 176z" />
    <glyph glyph-name="Delta" unicode="&#x2206;" horiz-adv-x="1345" 
d="M1239 240l-33 -240h-1216l33 240l602 1200h348zM754 1057l-365 -766h514z" />
    <glyph glyph-name="product" unicode="&#x220f;" horiz-adv-x="1574" 
d="M496 0h-342l157 1143h-149l41 297h1423l-41 -297h-151l-158 -1143h-344l160 1143h-437z" />
    <glyph glyph-name="summation" unicode="&#x2211;" horiz-adv-x="1261" 
d="M184 1212l31 228h1069l-39 -297h-661l278 -383l-377 -463h660l-41 -297h-1081l26 211l467 551z" />
    <glyph glyph-name="minus" unicode="&#x2212;" 
d="M131 594v246h952v-246h-952z" />
    <glyph glyph-name="uni2215" unicode="&#x2215;" horiz-adv-x="335" 
d="M713 1440h256l-1295 -1440h-258z" />
    <glyph glyph-name="uni2219" unicode="&#x2219;" horiz-adv-x="897" 
d="M766 743h-6q0 -117 -82 -196q-83 -80 -205 -80q-123 0 -203 80t-80 196q0 123 80 203t205 80q126 0 209 -80q82 -79 82 -203z" />
    <glyph glyph-name="radical" unicode="&#x221a;" horiz-adv-x="1239" 
d="M700 0h-348l-131 735h-155l38 273h392l86 -572l440 1004h332z" />
    <glyph glyph-name="infinity" unicode="&#x221e;" horiz-adv-x="1665" 
d="M1581 569l-2 -4q0 -179 -119 -295t-282 -116q-113 0 -211 55t-160 158q-100 -112 -191 -166q-86 -51 -186 -51q-145 0 -246 98q-100 97 -100 250q0 174 121 295q118 118 282 118q115 0 213 -55t160 -158q97 108 191 164q95 53 186 53q148 0 246 -98t98 -248zM467 666
l-6 4q-61 0 -101 -43q-38 -38 -38 -111q0 -58 34 -92q33 -33 93 -33q53 0 104 31q50 33 109 104q-56 85 -95 109q-48 31 -100 31zM1327 547l-6 -4q0 59 -33 92t-88 33q-51 0 -102 -31q-47 -28 -111 -105q55 -80 98 -108q48 -31 99 -31q62 0 102 43q41 47 41 111z" />
    <glyph glyph-name="integral" unicode="&#x222b;" horiz-adv-x="866" 
d="M670 1130l-160 -1208q-27 -201 -129 -295q-101 -94 -283 -94q-69 0 -110 8q-47 8 -111 31l37 270q18 -6 47 -12.5t33 -7.5q35 -6 61 -6q65 0 97 32q34 34 43 101l167 1204q27 197 130 293q104 96 280 96q70 0 111 -8q63 -11 108 -27l-37 -270q-31 12 -69 18q-47 7 -74 7
q-62 0 -98 -31q-34 -29 -43 -101z" />
    <glyph glyph-name="approxequal" unicode="&#x2248;" 
d="M662 1057l-9 -6q49 -20 97 -33q30 -6 61 -6q68 0 113 26q43 22 102 101v-277q-26 -45 -92 -80q-60 -32 -143 -32q-43 0 -95 10q-47 9 -112 41q-52 29 -97 41q-45 10 -77 10q-66 0 -123 -31q-54 -29 -107 -106v266q27 52 96 92q71 41 146 41q52 0 104 -12q63 -14 136 -45z
M653 621l-8 -7q44 -18 96 -32q35 -7 62 -7q66 0 112 27q46 24 103 100v-276q-26 -45 -92 -80q-62 -33 -144 -33q-37 0 -94 11q-48 9 -113 41q-53 30 -96 41q-45 10 -78 10q-65 0 -122 -31q-54 -29 -107 -106v266q27 52 96 92q71 41 146 41q52 0 104 -12q60 -14 135 -45z" />
    <glyph glyph-name="notequal" unicode="&#x2260;" 
d="M473 184h-244l88 181h-188v247h307l103 209h-410v248h528l88 180h244l-88 -180h180v-248h-299l-102 -209h401v-247h-520z" />
    <glyph glyph-name="lessequal" unicode="&#x2264;" 
d="M1022 332l-891 389v248l891 389v-301l-496 -213l496 -211v-301zM131 2v248h891v-248h-891z" />
    <glyph glyph-name="greaterequal" unicode="&#x2265;" 
d="M164 332v301l495 211l-495 213v301l891 -389v-248zM1055 2h-891v248h891v-248z" />
    <glyph glyph-name="lozenge" unicode="&#x25ca;" horiz-adv-x="1271" 
d="M559 -27l-471 777l479 716h195l477 -716l-471 -777h-209zM666 1126l-252 -381l252 -417l249 417z" />
    <glyph glyph-name="zero.denominator" unicode="&#xf655;" horiz-adv-x="700" 
d="M299 -12l-6 4q-135 0 -209 80q-72 78 -57 207l28 217q15 116 97 180q75 63 200 63q138 0 215 -80q76 -76 58 -204l-31 -219q-14 -116 -94 -183q-83 -65 -201 -65zM340 547l-6 -2q-37 0 -58 -21q-23 -23 -26 -55l-25 -201q-3 -38 17 -61t59 -23q38 0 59 21q26 20 29 55
l27 201q6 37 -15 61q-22 25 -61 25z" />
    <glyph glyph-name="one.denominator" unicode="&#xf656;" horiz-adv-x="450" 
d="M285 0h-205l76 526h-133l73 195h291z" />
    <glyph glyph-name="two.denominator" unicode="&#xf657;" horiz-adv-x="669" 
d="M338 195l221 6l-27 -195h-542l24 180l289 213q31 22 49 50q17 31 17 49q0 21 -13 34t-37 13q-26 0 -45 -19q-17 -17 -20 -45h-211q21 116 102 185q83 71 193 71q115 0 184 -57q70 -58 70 -154q0 -74 -37 -135q-38 -64 -147 -143z" />
    <glyph glyph-name="three.denominator" unicode="&#xf658;" horiz-adv-x="663" 
d="M360 238h-2q0 29 -24 47t-62 18h-61l20 146h70q35 0 57 16q19 16 19 49q0 24 -15 39q-14 14 -38 14q-23 0 -45 -16q-20 -16 -25 -47h-209q20 105 98 170q77 65 189 65q117 0 184 -55q68 -56 68 -137q0 -57 -25 -105q-23 -45 -76 -69q41 -24 62 -62q20 -33 20 -82
q0 -100 -78 -172q-75 -69 -202 -69q-136 0 -205 63q-74 65 -74 172h201q3 -26 22 -45q18 -18 50 -18q39 0 59 20q22 22 22 58z" />
    <glyph glyph-name="four.denominator" unicode="&#xf659;" horiz-adv-x="688" 
d="M8 264l311 457h244l-305 -436h107l14 98l203 47l-23 -145h49l-26 -185h-50l-12 -100h-196l14 100h-354z" />
    <glyph glyph-name="five.denominator" unicode="&#xf65a;" horiz-adv-x="636" 
d="M211 285l-170 18l94 414h426l-24 -187h-258l-15 -65q2 2 15 2h24q109 0 172 -57q66 -60 66 -156q0 -116 -80 -193q-75 -75 -199 -75q-121 0 -196 63q-76 64 -76 166h209q10 -22 24 -31q17 -10 41 -10q33 0 55 19q21 18 21 53q0 27 -18 45t-48 18q-17 0 -32 -6
q-17 -7 -31 -18z" />
    <glyph glyph-name="six.denominator" unicode="&#xf65b;" horiz-adv-x="641" 
d="M561 264l-2 -2q0 -114 -86 -194t-209 -80q-117 0 -186 69q-74 71 -74 172q0 55 29 127q30 68 84 136l186 231h244l-203 -242q100 -6 158 -67q59 -65 59 -150zM203 236l-4 -5q0 -34 18 -55q17 -20 53 -20q38 0 62 24t24 64q0 34 -18 55q-17 20 -49 20q-38 0 -62 -24
t-24 -59z" />
    <glyph glyph-name="seven.denominator" unicode="&#xf65c;" horiz-adv-x="606" 
d="M322 526h-275l27 195h518l-23 -166l-336 -555h-235z" />
    <glyph glyph-name="eight.denominator" unicode="&#xf65d;" horiz-adv-x="673" 
d="M84 528l2 -6q0 86 74 148q73 61 182 61t176 -55q68 -56 68 -137q0 -48 -25 -93q-23 -43 -69 -69q40 -30 61 -70q22 -42 22 -86q0 -104 -81 -170q-82 -67 -209 -67q-115 0 -197 61t-82 158q0 66 33 116q35 53 94 80q-25 29 -37 62q-12 34 -12 67zM268 510l-6 -2
q0 -27 19 -43q22 -16 47 -16q33 0 51 18t18 49q0 25 -16 41t-43 16q-33 0 -51 -18q-19 -19 -19 -45zM281 143l-2 2q37 0 67 23q25 22 25 61q0 32 -21 50t-55 18q-41 0 -66 -25q-24 -24 -24 -63q0 -30 20 -47q22 -19 56 -19z" />
    <glyph glyph-name="nine.denominator" unicode="&#xf65e;" horiz-adv-x="643" 
d="M31 459h-4q0 114 86 194t209 80q119 0 188 -69q74 -71 74 -172q0 -54 -29 -127q-30 -68 -84 -136l-186 -231h-244l203 242q-98 6 -156 67q-57 57 -57 152zM383 485l2 4q0 35 -18 56q-17 20 -52 20q-37 0 -61 -24q-25 -25 -25 -64q0 -33 19 -55q18 -21 49 -21q36 0 61 25
t25 59z" />
    <glyph glyph-name="zero.numerator" unicode="&#xf661;" horiz-adv-x="702" 
d="M401 707l-6 4q-135 0 -209 80q-72 78 -57 206l29 217q16 118 96 181q75 63 201 63q138 0 215 -80q75 -75 57 -204l-31 -220q-14 -115 -94 -182q-83 -65 -201 -65zM442 1266l-6 -2q-36 0 -57 -21q-24 -24 -27 -55l-24 -201q-3 -39 16 -61q20 -23 59 -23t60 21q26 20 29 55
l26 201q6 38 -14 61q-22 25 -62 25z" />
    <glyph glyph-name="one.numerator" unicode="&#xf662;" horiz-adv-x="448" 
d="M383 719h-205l76 526h-133l74 195h290z" />
    <glyph glyph-name="two.numerator" unicode="&#xf663;" horiz-adv-x="669" 
d="M438 913l221 7l-26 -195h-543l25 180l288 213q34 24 50 49q16 29 16 50q0 22 -12 34q-13 13 -37 13q-26 0 -45 -19q-18 -18 -21 -45h-211q21 114 103 184q84 72 192 72q116 0 185 -57t69 -154q0 -74 -37 -135q-38 -64 -147 -143z" />
    <glyph glyph-name="three.numerator" unicode="&#xf664;" horiz-adv-x="663" 
d="M461 956h-2q0 29 -25 48q-24 18 -61 18h-62l21 145h69q34 0 58 17q18 15 18 49q0 25 -14 39t-39 14q-23 0 -45 -16q-20 -16 -25 -47h-209q20 103 99 170q77 65 188 65q117 0 184 -55q68 -56 68 -137q0 -57 -25 -105q-23 -45 -75 -69q39 -23 61 -62q21 -34 21 -82
q0 -100 -78 -172q-75 -69 -203 -69q-136 0 -205 63q-74 65 -74 172h201q3 -25 23 -45q18 -18 49 -18q39 0 59 20q23 23 23 57z" />
    <glyph glyph-name="four.numerator" unicode="&#xf665;" horiz-adv-x="688" 
d="M111 983l311 457h244l-306 -436h107l14 98l203 47l-22 -145h49l-27 -185h-49l-12 -100h-197l14 100h-354z" />
    <glyph glyph-name="five.numerator" unicode="&#xf666;" horiz-adv-x="634" 
d="M311 1004l-170 18l95 414h426l-25 -187h-258l-14 -65q2 2 14 2h24q108 0 172 -58q66 -60 66 -155q0 -116 -80 -193q-75 -75 -199 -75q-121 0 -196 63q-76 64 -76 166h209q9 -22 25 -31q17 -10 41 -10q34 0 55 18q20 17 20 54q0 27 -18 45t-47 18q-18 0 -33 -6
q-17 -7 -31 -18z" />
    <glyph glyph-name="six.numerator" unicode="&#xf667;" horiz-adv-x="641" 
d="M664 983l-2 -2q0 -114 -87 -195q-85 -79 -208 -79q-118 0 -187 69q-74 71 -74 172q0 54 29 127q29 66 84 135l187 232h243l-203 -242q100 -6 158 -67q60 -66 60 -150zM305 954l-4 -4q0 -34 18 -55t54 -21t61 25t25 64q0 33 -19 55q-17 20 -49 20q-37 0 -61 -24
q-25 -25 -25 -60z" />
    <glyph glyph-name="seven.numerator" unicode="&#xf668;" horiz-adv-x="606" 
d="M422 1245h-275l27 195h518l-22 -166l-336 -555h-236z" />
    <glyph glyph-name="eight.numerator" unicode="&#xf669;" horiz-adv-x="673" 
d="M186 1247l2 -6q0 86 74 148q73 61 182 61q110 0 177 -55t67 -138q0 -49 -24 -92q-23 -42 -70 -69q40 -30 61 -70q23 -44 23 -86q0 -103 -82 -170q-83 -68 -209 -68q-114 0 -197 62q-81 60 -81 158q0 67 32 116q34 52 95 80q-25 29 -37 62q-13 37 -13 67zM371 1229l-6 -2
q0 -28 18 -43q24 -17 47 -17q32 0 51 19t19 49q0 24 -17 41q-16 16 -43 16q-33 0 -51 -18t-18 -45zM383 862l-2 2q38 0 68 23q24 21 24 61q0 32 -20 49q-22 19 -56 19q-40 0 -65 -25t-25 -63q0 -29 21 -47q22 -19 55 -19z" />
    <glyph glyph-name="nine.numerator" unicode="&#xf66a;" horiz-adv-x="641" 
d="M131 1178h-4q0 114 86 194t209 80q118 0 188 -70q74 -71 74 -172q0 -54 -29 -127q-29 -66 -84 -135l-186 -231h-244l203 241q-97 6 -156 68q-57 57 -57 152zM483 1204l2 4q0 35 -18 56q-17 20 -51 20q-38 0 -62 -24t-24 -64q0 -34 18 -55t49 -21q37 0 62 25q24 24 24 59z
" />
    <glyph glyph-name="commaaccent" unicode="&#xf6c3;" horiz-adv-x="458" 
d="M358 -332l-110 -231h-160l90 182q-49 16 -74 53q-26 33 -26 84q0 64 43 107t108 43q68 0 111 -43t43 -107q0 -22 -6 -43z" />
    <glyph glyph-name="uniF8FF" unicode="&#xf8ff;" horiz-adv-x="2945" 
d="M1518 1071v-74h63q6 0 18 -4q7 -3 7 -16v-55q0 -12 -7 -19q-6 -6 -18 -6h-63v-158q0 -17 12 -26q8 -8 37 -8h20q12 0 19 -7q6 -6 6 -18v-55q0 -13 -6 -19t-19 -6h-39q-80 0 -123 29q-36 26 -36 96v172h-35q-13 0 -19 6t-6 19v51q0 2 4 14q2 7 19 10l32 2h2v74q0 12 7 19
q6 6 18 6h80q14 0 20 -6q7 -7 7 -21zM717 999l82 -4q12 0 18 -6t6 -18v-13q34 25 62 35q37 11 59 11q33 0 62 -13q28 -13 43 -39q43 34 63 41q32 13 68 13q53 0 84 -31q30 -30 30 -80v-270q0 -13 -6 -19t-20 -6h-78q-15 0 -21 6t-6 19v237q0 21 -6 27t-22 6q-23 0 -39 -8
q-13 -7 -39 -25v-239q0 -13 -6 -19t-19 -6h-78q-14 0 -20 6t-6 19v237q0 21 -6 27t-25 6q-23 0 -39 -8q-18 -7 -37 -21v-239q0 -7 -4 -19q-3 -6 -16 -6h-84q-13 0 -19 6t-6 19v350q0 12 6 18t19 6zM2087 995h74q14 0 20 -6t6 -18l2 -15q33 26 60 35q33 10 61 10q58 0 88 -30
q31 -31 31 -90v-164q0 -58 -31 -94q-29 -33 -88 -33q-28 0 -61 10q-28 9 -56 31v-170q0 -13 -6 -19t-18 -6h-82q-13 0 -19 6t-6 19v510q0 12 6 18t19 6zM463 1004l-2 -3q83 0 127 -30q43 -30 43 -94v-89q0 -12 -6 -18t-19 -6h-190v-47q0 -18 12 -27q8 -8 37 -8q20 0 37 10
q12 9 12 29v2q0 12 6 18q7 7 19 7h65q12 0 19 -7q6 -6 6 -18v-6q0 -64 -41 -94q-42 -31 -123 -31q-85 0 -129 33q-45 33 -45 94v162q0 62 43 92q45 31 129 31zM2660 1001l-6 -2q84 0 127 -30t43 -95v-88q0 -12 -6 -18t-18 -6h-193v-47q0 -18 12 -27q8 -8 37 -8q20 0 37 10
q12 9 12 29v2q0 11 7 18q6 6 18 6h66q12 0 18 -6t6 -18v-6q0 -65 -39 -94q-42 -31 -123 -31q-88 0 -127 33q-43 34 -43 94v162q0 62 43 92t129 30zM1757 969l35 -146q6 -14 10 -45q1 -6 2 -13l1.5 -10.5t0.5 -6.5q3 3 9 26q3 8 6 24t6 23l49 148q3 16 10 18q12 4 17 4h75
q15 0 21 -6q6 -9 4 -16l-172 -510q-3 -11 -10 -17q-6 -6 -17 -6h-57q-15 0 -21 6t-2 17l33 121l-133 389q-4 11 2 16q6 6 23 6h82q4 0 16 -4q7 -2 10 -18zM444 903v-4q-28 0 -36 -8q-13 -10 -13 -27v-22h99v22q0 19 -13 29q-17 10 -37 10zM2644 899l2 -4q-29 0 -37 -8
q-12 -9 -12 -27v-22h96v22q0 20 -12 29q-17 10 -37 10zM2251 686l2 2q18 0 26 8q9 9 9 27v127q0 16 -9 22q-11 7 -26 7q-13 0 -31 -7q-9 -2 -45 -24v-129q10 -5 21.5 -11t17.5 -9.5t10 -6.5q12 -6 25 -6zM1149 459l-4 -84h96q6 0 6 -2v-6v-17q0 -6 -2 -8t-6 -2h-96v-254
q0 -33 24 -51q25 -19 78 -19h12q5 0 7 -2q4 -4 4 -6v-14q0 -4 -2 -6t-6 -2h-19q-66 0 -102 22q-31 22 -31 74v258h-51q-4 0 -6 2t-2 8v15q0 4 2 6l6 6h51v84v8q0 2 6 2h23l6 -6zM834 383l-9 2q69 0 105 -25q35 -24 35 -73v-101q0 -4 -2 -6t-7 -2h-233v-98q0 -33 25 -49
q31 -17 77 -17q43 0 74 17q25 16 25 49v16q0 4 2 6t12 2h18q7 0 9 -2t2 -6v-18q0 -52 -35 -76q-36 -25 -105 -25q-68 0 -104 25q-35 24 -35 74v209q0 49 37 73q39 25 109 25zM313 371l6 -43q38 27 68 37q35 12 68 12q52 0 80 -25t28 -67v-295q0 -4 -2 -6t-6 -2h-23h-6
q-2 0 -2 10v287q0 33 -20 47q-22 16 -62 16q-36 0 -71 -12t-56 -33v-303q0 -4 -2 -6t-6 -2h-22q-7 0 -9 2t-2 8v375q0 4 2 6t9 2h18q6 0 8 -2t2 -6zM831 342h-2q-46 0 -75 -16q-25 -16 -25 -50v-73h201v73q0 34 -25 50q-29 16 -74 16zM145 49v-61q0 -6 -2 -8q-3 -3 -8 -3
h-22q-4 0 -7 3q-2 2 -2 8v61q0 6 2 8t7 2h22q6 0 8 -2t2 -8z" />
    <glyph glyph-name="f_f" unicode="&#xfb00;" horiz-adv-x="1531" 
d="M578 764l-101 -772h-313l106 764h-172l39 278h172l17 113q27 198 129 293q104 96 276 96q61 0 113 -8q43 -7 106 -27l-37 -270q-27 12 -67 18q-41 6 -74 6q-64 0 -98 -30q-34 -29 -43 -101l-13 -88h410l14 113q24 193 127 293q101 98 283 98q61 0 113 -8q43 -7 106 -27
l-37 -270q-28 9 -67 18q-34 9 -74 9q-62 0 -98 -31q-34 -29 -43 -101l-13 -88h234l-39 -278h-234l-106 -764h-313l106 764h-409z" />
    <glyph glyph-name="fi" unicode="&#xfb01;" horiz-adv-x="1390" 
d="M578 764l-113 -766h-313l106 764h-172l39 278h172l16 113q27 198 129 293q104 96 281 96q63 0 104 -8q46 -8 99 -25l-37 -270l-64 16q-35 7 -59 7q-58 0 -94 -31q-34 -29 -43 -101l-13 -88h234l-39 -278h-233zM1016 1341v-4q0 83 53 136q51 51 141 51q89 0 140 -51
q53 -53 53 -136q0 -78 -53 -131q-51 -51 -140 -51q-88 0 -141 53t-53 133zM1176 -6h-312l148 1042h311z" />
    <glyph glyph-name="fl" unicode="&#xfb02;" horiz-adv-x="1390" 
d="M578 764l-113 -766h-313l106 764h-172l39 278h172l16 113q27 198 129 293q104 96 281 96q63 0 104 -8q46 -8 99 -25l-37 -270l-64 16q-35 7 -59 7q-58 0 -94 -31q-34 -29 -43 -101l-13 -88h234l-39 -278h-233zM1077 1516h312l-213 -1518h-312z" />
    <glyph glyph-name="f_f_i" unicode="&#xfb03;" horiz-adv-x="2111" 
d="M578 764l-109 -768h-313l106 764h-172l39 278h172l16 113q27 198 129 293q104 96 281 96q61 0 113 -8q43 -7 106 -27l-37 -270q-27 12 -67 18q-47 7 -74 7q-58 0 -94 -31q-34 -29 -43 -101l-13 -88h410l14 113q27 201 129 295q104 96 277 96q65 0 106 -8q46 -8 99 -25
l-37 -270q-10 3 -31 7t-31 7q-40 7 -61 7q-62 0 -98 -31q-34 -29 -43 -101l-13 -88h234l-39 -278h-234l-106 -764h-313l106 764h-409zM1741 1339v-4q0 82 53 135q52 52 141 52q88 0 140 -52q53 -53 53 -135q0 -78 -53 -131q-51 -51 -140 -51q-88 0 -141 53t-53 133zM1901 -8
h-312l148 1042h311z" />
    <glyph glyph-name="f_f_l" unicode="&#xfb04;" horiz-adv-x="2111" 
d="M578 764l-109 -768h-313l106 764h-172l39 278h172l16 113q27 198 129 293q104 96 281 96q61 0 113 -8q43 -7 106 -27l-37 -270q-27 12 -67 18q-47 7 -74 7q-58 0 -94 -31q-34 -29 -43 -101l-13 -88h410l14 113q27 201 129 295q104 96 277 96q65 0 106 -8q46 -8 99 -25
l-37 -270q-10 3 -31 7t-31 7q-40 7 -61 7q-62 0 -98 -31q-34 -29 -43 -101l-13 -88h234l-39 -278h-234l-106 -764h-313l106 764h-409zM1804 1513h312l-213 -1517h-312z" />
    <glyph glyph-name="longs_t" unicode="&#xfb05;" horiz-adv-x="1464" 
d="M530 1137l-161 -1141h-314l162 1155q27 201 129 295q104 96 279 96q62 0 114 -8q41 -6 105 -27l-37 -264l-70 17q-37 6 -69 6q-59 0 -95 -31q-34 -29 -43 -98zM1452 1038l-41 -282h-248l-57 -383q-9 -71 18 -105q25 -32 103 -32q25 0 67 10q39 12 68 28l-39 -278
q-30 -15 -76 -21q-43 -6 -92 -6q-213 0 -301 101q-89 103 -59 303l57 387h-162l39 278h166l47 314l318 53l-54 -367h246z" />
    <glyph glyph-name="zero.tab" unicode="&#xff10;" horiz-adv-x="1228" 
d="M586 -27h-2q-260 0 -408 160t-110 412l61 426q35 237 184 366q150 129 381 129q270 0 412 -161q144 -164 110 -418l-57 -420q-34 -236 -184 -365t-387 -129zM676 1159l-4 2q-97 0 -154 -57q-61 -58 -76 -156l-59 -420q-15 -111 43 -178t172 -67q100 0 158 55t73 158
l58 419q15 114 -41 179t-170 65z" />
    <glyph glyph-name="one.tab" unicode="&#xff11;" horiz-adv-x="1228" 
d="M1012 0h-897l41 297h286l119 846h-268l113 297h522l-162 -1143h287z" />
    <glyph glyph-name="two.tab" unicode="&#xff12;" horiz-adv-x="1228" 
d="M1190 1055v-4q0 -150 -70 -263q-70 -117 -282 -276l-287 -219h573l-45 -297h-1059l39 289l627 481q85 66 121 123q37 61 37 125t-43 104q-39 39 -121 39q-83 0 -141 -55q-59 -56 -80 -146h-338q27 224 188 367q159 141 393 141q215 0 353 -114q135 -114 135 -295z" />
    <glyph glyph-name="three.tab" unicode="&#xff13;" horiz-adv-x="1228" 
d="M592 -27l4 -8q-239 0 -383 123t-150 338h330q3 -70 60 -115q55 -43 141 -43q88 0 147 56q58 55 58 139q0 76 -49 119t-142 43h-153l34 235h158q88 0 141 47q54 48 54 123q0 61 -43 98t-119 37q-73 0 -125 -43q-54 -44 -68 -112h-329q27 200 176 325q151 127 362 127
q219 0 344 -104q127 -106 127 -268q0 -124 -55 -209q-57 -87 -166 -136q85 -48 131 -129q45 -80 45 -186q0 -194 -147 -326q-143 -131 -383 -131z" />
    <glyph glyph-name="four.tab" unicode="&#xff14;" horiz-adv-x="1228" 
d="M29 522l641 918h383l-637 -908h323l37 256l328 76l-47 -332h141l-41 -290h-143l-31 -242h-319l32 242h-704z" />
    <glyph glyph-name="five.tab" unicode="&#xff15;" horiz-adv-x="1228" 
d="M340 1440h821l-39 -297h-565l-51 -215q13 3 37.5 7t36.5 7q37 6 73 6q216 0 342 -117q127 -118 127 -309q0 -236 -157 -393q-156 -156 -394 -156q-217 0 -368 127q-148 127 -160 330h334q12 -70 67 -113t134 -43q99 0 161 62t62 160q0 79 -56 129q-55 49 -149 49
q-51 0 -100 -19q-44 -17 -80 -53l-256 49z" />
    <glyph glyph-name="six.tab" unicode="&#xff16;" horiz-adv-x="1228" 
d="M598 -27l-4 -4q-228 0 -371 137q-147 138 -147 345q0 104 53 237q51 128 141 238l424 514h391l-415 -482h20q207 0 346 -127q135 -126 135 -319q0 -227 -167 -381q-172 -158 -406 -158zM840 496h2q0 86 -58 141t-149 55q-99 0 -166 -67q-68 -68 -68 -166q0 -84 60 -144
q57 -57 147 -57q97 0 164 70q68 71 68 168z" />
    <glyph glyph-name="seven.tab" unicode="&#xff17;" horiz-adv-x="1228" 
d="M829 1143h-636l40 297h1018l-34 -256l-728 -1184h-374z" />
    <glyph glyph-name="eight.tab" unicode="&#xff18;" horiz-adv-x="1228" 
d="M319 805l-6 -6q-48 54 -71 110q-25 64 -25 133q0 179 135 299q139 121 342 121q208 0 332 -106q127 -109 127 -271q0 -97 -47 -186q-48 -91 -133 -147q69 -53 114 -138q41 -84 41 -170q0 -200 -153 -335q-154 -136 -385 -136q-230 0 -377 117t-147 307q0 131 67 238
q72 113 186 170zM506 1026h-4q0 -64 49 -104q45 -39 123 -39q76 0 125 49t49 119q0 61 -45 100t-123 39q-72 0 -125 -47q-49 -46 -49 -117zM803 451l-2 -5q0 80 -58 129q-59 50 -153 50q-96 0 -154 -58q-61 -58 -61 -141q0 -81 59 -131q58 -49 152 -49q90 0 155 59
q62 59 62 146z" />
    <glyph glyph-name="nine.tab" unicode="&#xff19;" horiz-adv-x="1228" 
d="M684 1466q230 0 373 -137q147 -138 147 -344q0 -113 -51 -235q-54 -130 -141 -236l-424 -514h-391l415 481h-20q-207 0 -346 127q-135 126 -135 320q0 226 168 381q171 157 405 157zM438 940h-4q0 -86 58 -141q59 -56 149 -56q98 0 166 68q67 67 67 166q0 86 -57 143
q-58 58 -147 58q-97 0 -164 -70q-68 -71 -68 -168z" />
    <glyph glyph-name="Lgeminada" horiz-adv-x="2158" 
d="M979 0h-899l203 1440h325l-159 -1143h571zM1090 719q0 -81 -60 -141q-58 -58 -147 -58q-90 0 -148 58q-57 57 -57 141q0 90 57 147q58 58 148 58q89 0 147 -58q60 -60 60 -147zM2056 0h-899l203 1440h326l-160 -1143h571z" />
    <glyph glyph-name="lgeminada" horiz-adv-x="1550" 
d="M274 1518h312l-213 -1518h-312zM1008 719q0 -81 -60 -141q-58 -58 -147 -58q-90 0 -148 58q-57 57 -57 141q0 90 57 147q58 58 148 58q89 0 147 -58q60 -60 60 -147zM1243 1518h311l-213 -1518h-311z" />
    <glyph glyph-name="caron.salt" horiz-adv-x="466" 
d="M387 1278l-170 -283h-178l139 234q-47 18 -74 59q-26 39 -26 90q0 70 47 117t121 47q70 0 123 -47q49 -46 49 -117q0 -21 -6 -45q-6 -23 -25 -55z" />
    <glyph glyph-name="commaaccent.salt" horiz-adv-x="405" 
d="M70 1407l135 219h162l-119 -186q40 -15 63 -51q25 -39 25 -80q0 -66 -43 -109t-109 -43q-67 0 -110 43t-43 109q0 27 8 43q6 14 31 55z" />
    <glyph glyph-name="acute.case" horiz-adv-x="745" 
d="M371 1559h-305l213 305h309z" />
    <glyph glyph-name="grave.case" horiz-adv-x="745" 
d="M246 1559l-129 305h293l125 -305h-289z" />
    <glyph glyph-name="hungarumlaut.case" horiz-adv-x="772" 
d="M236 1864h292l-182 -305h-289zM598 1864h293l-184 -305h-289z" />
    <glyph glyph-name="circumflex.case" horiz-adv-x="778" 
d="M53 1559l248 305h348l160 -305h-264l-86 157l-127 -157h-279z" />
    <glyph glyph-name="caron.case" horiz-adv-x="778" 
d="M897 1864l-248 -305h-348l-160 305h265l86 -158l126 158h279z" />
    <glyph glyph-name="breve.case" horiz-adv-x="792" 
d="M436 1538h4q-145 0 -245 92q-99 92 -99 228h228q0 -56 30 -91q30 -34 84 -34t84 34q31 36 31 91h227q0 -137 -98 -228q-100 -92 -246 -92z" />
    <glyph glyph-name="tilde.case" horiz-adv-x="804" 
d="M467 1800l-14 -4q27 -21 39 -27t22 -6q22 0 31 19q11 25 16 65h205q-9 -149 -64 -223q-56 -74 -161 -74q-37 0 -70 13q-34 15 -76 49q-25 26 -39 30q-14 7 -26 7q-27 0 -39 -21q-13 -23 -19 -67h-206q9 151 67 227t170 76q37 0 78 -13q42 -12 86 -51z" />
    <glyph glyph-name="macron.case" horiz-adv-x="792" 
d="M666 1591h-594l28 209h594z" />
    <glyph glyph-name="dieresis.case" horiz-adv-x="768" 
d="M391 1704h-2q0 -65 -43 -111q-42 -45 -106 -45q-67 0 -109 45q-43 46 -43 111t43 111q42 45 109 45q66 0 108 -45q43 -46 43 -111zM748 1704h-3q0 -65 -43 -111q-42 -45 -106 -45q-66 0 -111 45t-45 111t45 111t111 45q67 0 109 -45q43 -46 43 -111z" />
    <glyph glyph-name="dotaccent.case" horiz-adv-x="724" 
d="M424 1716h-2q0 -70 -49 -119t-119 -49t-119 49t-49 119t49 119t119 49q72 0 121 -49t49 -119z" />
    <glyph glyph-name="ring.case" horiz-adv-x="763" 
d="M557 1772l-2 2q0 -99 -72 -168q-71 -68 -176 -68q-106 0 -178 66q-70 64 -70 165q0 97 72 166q71 68 176 68q102 0 176 -68t74 -163zM231 1774h-2q0 -33 23 -56q22 -22 55 -22t55 22q23 23 23 56q0 32 -23 55q-22 22 -55 22t-55 -22q-21 -21 -21 -55z" />
    <glyph glyph-name="G.alt" horiz-adv-x="1642" 
d="M1198 510l-383 -6l35 250h731v-33q0 -316 -219 -535q-217 -217 -551 -217q-317 0 -514 191t-197 489q0 158 60 312q58 147 166 262q112 115 260 178q146 61 311 61q277 0 467 -147q190 -146 233 -389h-358q-40 106 -135 168q-94 61 -227 61q-188 0 -314 -141
q-127 -145 -127 -346q0 -173 105 -281t276 -108q133 0 236 59q98 56 145 172z" />
    <glyph glyph-name="Gcircumflex.alt" horiz-adv-x="1642" 
d="M537 1559l247 305h349l159 -305h-264l-86 157l-127 -157h-278zM1198 510l-383 -6l35 250h731v-33q0 -316 -219 -535q-217 -217 -551 -217q-317 0 -514 191t-197 489q0 158 60 312q58 147 166 262q112 115 260 178q146 61 311 61q277 0 467 -147q190 -146 233 -389h-358
q-40 106 -135 168q-94 61 -227 61q-188 0 -314 -141q-127 -145 -127 -346q0 -173 105 -281t276 -108q133 0 236 59q98 56 145 172z" />
    <glyph glyph-name="Gbreve.alt" horiz-adv-x="1642" 
d="M1198 510l-383 -6l35 250h731v-33q0 -316 -219 -535q-217 -217 -551 -217q-317 0 -514 191t-197 489q0 158 60 312q58 147 166 262q112 115 260 178q146 61 311 61q277 0 467 -147q190 -146 233 -389h-358q-40 106 -135 168q-94 61 -227 61q-188 0 -314 -141
q-127 -145 -127 -346q0 -173 105 -281t276 -108q133 0 236 59q98 56 145 172zM950 1532h4q-145 0 -245 92q-99 92 -99 227h228q0 -55 30 -90t84 -35t84 35q31 36 31 90h227q0 -136 -98 -227q-100 -92 -246 -92z" />
    <glyph glyph-name="Gdotaccent.alt" horiz-adv-x="1642" 
d="M1096 1716h-2q0 -69 -50 -119q-49 -49 -118 -49q-70 0 -119 49t-49 119t49 119t119 49q72 0 121 -49t49 -119zM1196 510l-383 -6l35 250h731v-33q0 -316 -219 -535q-217 -217 -551 -217q-317 0 -514 191t-197 489q0 158 60 312q58 147 166 262q112 115 260 178
q146 61 311 61q277 0 467 -147q190 -146 233 -389h-358q-40 106 -135 168q-94 61 -228 61q-187 0 -313 -141q-127 -145 -127 -346q0 -173 105 -281t276 -108q133 0 236 59q98 56 145 172z" />
    <glyph glyph-name="uni0122.alt" horiz-adv-x="1642" 
d="M881 -360l-111 -232h-160l90 182q-47 15 -73 54q-27 34 -27 84q0 63 43 106t109 43q67 0 110 -43t43 -106q0 -22 -6 -43zM1202 512l-383 -6l35 250h731v-33q0 -316 -219 -535q-217 -217 -551 -217q-317 0 -514 191t-197 489q0 158 60 312q58 147 166 262q112 115 260 178
q146 61 311 61q276 0 467 -147t234 -389h-359q-40 106 -135 168q-94 61 -227 61q-188 0 -314 -141q-127 -145 -127 -346q0 -173 105 -281t276 -108q133 0 236 59q98 56 145 172z" />
    <glyph glyph-name="a.alt" horiz-adv-x="1345" 
d="M1286 1042l-145 -1040h-295l16 121q-68 -71 -151 -109q-81 -37 -179 -37q-209 0 -339 136t-130 346q0 266 154 440q153 172 393 172q120 0 211 -49q93 -49 146 -141l22 161h297zM397 485q0 -98 68 -163q72 -66 170 -66q125 0 201 82q77 83 77 209q0 109 -67 176
q-68 68 -176 68q-120 0 -197 -86q-76 -82 -76 -220z" />
    <glyph glyph-name="agrave.alt" horiz-adv-x="1345" 
d="M1286 1042l-145 -1040h-295l16 121q-68 -71 -151 -109q-81 -37 -179 -37q-209 0 -339 136t-130 346q0 266 154 440q153 172 393 172q120 0 211 -49q93 -49 146 -141l22 161h297zM397 485q0 -98 68 -163q72 -66 170 -66q125 0 201 82q77 83 77 209q0 109 -67 176
q-68 68 -176 68q-120 0 -197 -86q-76 -82 -76 -220zM594 1165l-129 305h293l125 -305h-289z" />
    <glyph glyph-name="aacute.alt" horiz-adv-x="1345" 
d="M924 1163h-306l213 305h310zM1286 1042l-145 -1040h-295l16 121q-68 -71 -151 -109q-81 -37 -179 -37q-209 0 -339 136t-130 346q0 266 154 440q153 172 393 172q120 0 211 -49q93 -49 146 -141l22 161h297zM397 485q0 -98 68 -163q72 -66 170 -66q125 0 201 82
q77 83 77 209q0 109 -67 176q-68 68 -176 68q-120 0 -197 -86q-76 -82 -76 -220z" />
    <glyph glyph-name="acircumflex.alt" horiz-adv-x="1345" 
d="M389 1163l248 305h348l160 -305h-264l-86 158l-127 -158h-279zM1286 1042l-145 -1040h-295l16 121q-68 -71 -151 -109q-81 -37 -179 -37q-209 0 -339 136t-130 346q0 266 154 440q153 172 393 172q120 0 211 -49q93 -49 146 -141l22 161h297zM397 485q0 -98 68 -163
q72 -66 170 -66q125 0 201 82q77 83 77 209q0 109 -67 176q-68 68 -176 68q-120 0 -197 -86q-76 -82 -76 -220z" />
    <glyph glyph-name="atilde.alt" horiz-adv-x="1345" 
d="M1286 1042l-145 -1040h-295l16 121q-68 -71 -151 -109q-81 -37 -179 -37q-209 0 -339 136t-130 346q0 266 154 440q153 172 393 172q120 0 211 -49q93 -49 146 -141l22 161h297zM397 485q0 -98 68 -163q72 -66 170 -66q125 0 201 82q77 83 77 209q0 109 -67 176
q-68 68 -176 68q-120 0 -197 -86q-76 -82 -76 -220zM834 1409l-15 -4q27 -21 39 -27t23 -6q21 0 30 19q12 29 17 65h205q-9 -149 -64 -223q-56 -74 -162 -74q-39 0 -69 12q-31 14 -76 50q-26 25 -39 30q-12 6 -27 6q-28 0 -39 -20q-12 -21 -18 -68h-207q9 151 68 228
q58 76 170 76q37 0 78 -13q42 -12 86 -51z" />
    <glyph glyph-name="adieresis.alt" horiz-adv-x="1345" 
d="M758 1311h-2q0 -65 -43 -111q-42 -45 -107 -45q-66 0 -108 45q-43 46 -43 111q0 64 43 110q42 45 108 45q67 0 109 -45q43 -46 43 -110zM1114 1311h-2q0 -65 -43 -111q-42 -45 -106 -45q-66 0 -111 45t-45 111q0 65 45 110t111 45t108 -45q43 -46 43 -110zM1282 1042
l-145 -1040h-295l16 121q-68 -71 -151 -109q-81 -37 -179 -37q-210 0 -340 136q-129 135 -129 346q0 266 154 440q153 172 393 172q120 0 211 -49q93 -49 146 -141l22 161h297zM393 485q0 -98 68 -163q72 -66 170 -66q124 0 200 82q78 84 78 209q0 109 -67 176
q-68 68 -176 68q-120 0 -197 -86q-76 -82 -76 -220z" />
    <glyph glyph-name="aring.alt" horiz-adv-x="1345" 
d="M1036 1376l-2 2q0 -100 -71 -168q-70 -67 -177 -67t-178 65q-69 63 -69 166q0 98 71 166t176 68q103 0 177 -68q73 -67 73 -164zM711 1378h-2q0 -33 22 -55q23 -23 55 -23q33 0 56 23q22 22 22 55q0 34 -22 56t-56 22q-33 0 -55 -22q-20 -20 -20 -56zM1282 1044
l-145 -1040h-295l16 121q-68 -71 -151 -109q-79 -36 -179 -36q-211 0 -340 135t-129 346q0 266 154 440q153 172 393 172q120 0 211 -49q93 -49 146 -141l22 161h297zM393 487q0 -98 68 -163q72 -66 170 -66q124 0 200 82q78 84 78 209q0 109 -67 176q-68 68 -176 68
q-120 0 -197 -86q-76 -82 -76 -220z" />
    <glyph glyph-name="amacron.alt" horiz-adv-x="1345" 
d="M1286 1042l-145 -1040h-295l16 121q-68 -71 -151 -109q-81 -37 -179 -37q-209 0 -339 136t-130 346q0 266 154 440q153 172 393 172q120 0 211 -49q93 -49 146 -141l22 161h297zM397 485q0 -98 68 -163q72 -66 170 -66q125 0 201 82q77 83 77 209q0 109 -67 176
q-68 68 -176 68q-120 0 -197 -86q-76 -82 -76 -220zM1069 1200h-594l29 209h594z" />
    <glyph glyph-name="abreve.alt" horiz-adv-x="1345" 
d="M1286 1042l-145 -1040h-295l16 121q-68 -71 -151 -109q-81 -37 -179 -37q-209 0 -339 136t-130 346q0 266 154 440q153 172 393 172q120 0 211 -49q93 -49 146 -141l22 161h297zM397 485q0 -98 68 -163q72 -66 170 -66q125 0 201 82q77 83 77 209q0 109 -67 176
q-68 68 -176 68q-120 0 -197 -86q-76 -82 -76 -220zM788 1145h5q-146 0 -246 92q-98 91 -98 227h227q0 -54 31 -90q30 -35 84 -35q53 0 83 35q31 36 31 90h228q0 -136 -99 -227q-100 -92 -246 -92z" />
    <glyph glyph-name="aogonek.alt" horiz-adv-x="1345" 
d="M1286 1042l-145 -1036h-62q-132 -123 -178 -184q-47 -65 -47 -105q0 -31 23 -51q21 -18 59 -18q21 0 45 6l49 16l-29 -200q-49 -21 -79 -27q-36 -8 -86 -8q-107 0 -174 55q-68 56 -68 152q0 77 43 147q45 73 209 215l16 119q-68 -71 -151 -109q-81 -37 -179 -37
q-209 0 -339 136t-130 346q0 266 154 440q153 172 393 172q120 0 211 -49q93 -49 146 -141l22 161h297zM397 489q0 -98 68 -163q72 -66 170 -66q125 0 201 82q77 83 77 209q0 109 -67 176q-68 68 -176 68q-120 0 -197 -86q-76 -82 -76 -220z" />
    </font>
</defs>
</svg>
